User Info

ADS

Torrent’s details
Name Ghost: In Your Arms Again (2010)
  You will need to Register or Login to download!
Info Hash c00c8f3afa3b55caafc7728e001d48890d3317ae
Description


http://en.wikipedia.org/wiki/Ghost:_In_Your_Arms_Again
http://www.hancinema.net/korean_movie_Ghost__2p__In_Your_Arms_Again.php
http://asianmediawiki.com/Ghost_%282010-Japanese_Remake%29
http://www.ghost-movie.jp/

Title: Ghost / Ghost : In Your Arms Again
Romaji: Gosuto
Japanese: ゴースト もういちど抱きしめたい
Korean: 고스트 : 보이지 않는 사랑 (Ghost: Boiji Anneun Sarang)
Director: Taro Otani
Writer: Shimako Sato, Miho Nakazono
Producer: Takashige Ichise
Cinematographer: Takuro Ishizaka
Release Date: November 13, 2010
Runtime: 116 min.
Language: Japanese
Country: Japan
Subtitles: none

Main Cast
Nanako Matsushima as Nanami Hoshino
Song Seung-heon as Kim Jin-ho
Kirin Kiki as Unten
Mana Ashida as the Ghost child
Satoshi Hashimoto
Sawa Suzuki

Synopsis
Nanami Hoshino (Nanako Matsushima), a wealthy entrepreneur, marries Korean potter Kim Jun-ho (Song Seung-heon), and they both live a seemingly happy life. Then, one year after their marriage, Nanami is killed by a biker on her way home. This tragedy leaves Jun-ho completely devastated. At the hospital, Nanami's ghost arises from her body, and upon meeting a ghost child (Mana Ashida), she realizes that she is a ghost whose presence cannot be seen. She then realizes that her death was no coincidence and Jin-ho is in imminent danger. Unable to communicate with normal humans, Nanami seeks help from the elderly psychic Unten (Kirin Kiki) in hopes of saving Jin-ho's life.

General
Complete name                    : Ghost In Your Arms Again (2010).mp4
Format                           : MPEG-4
Format profile                   : Base Media / Version 2
Codec ID                         : mp42
File size                        : 1.75 GiB
Duration                         : 1h 55mn
Overall bit rate                 : 2 169 Kbps

Video
ID                               : 1
Format                           : MPEG-4 Visual
Format profile                   : Advanced Simple@L4
Format settings, BVOP            : No
Format settings, QPel            : No
Format settings, GMC             : No warppoints
Format settings, Matrix          : Default (H.263)
Codec ID                         : 20
Duration                         : 1h 55mn
Bit rate mode                    : Constant
Bit rate                         : 1 973 Kbps
Nominal bit rate                 : 64.0 Kbps
Width                            : 848 pixels
Height                           : 480 pixels
Display aspect ratio             : 16:9
Frame rate mode                  : Constant
Frame rate                       : 29.970 fps
Color space                      : YUV
Chroma subsampling               : 4:2:0
Bit depth                        : 8 bits
Scan type                        : Progressive
Compression mode                 : Lossy
Bits/(Pixel*Frame)               : 0.162
Stream size                      : 1.59 GiB (91%)
Writing library                  : XviD 1.2.1 (UTC 2008-1

Audio
ID                               : 2
Format                           : AAC
Format/Info                      : Advanced Audio Codec
Format profile                   : LC
Codec ID                         : 40
Duration                         : 1h 55mn
Bit rate mode                    : Constant
Bit rate                         : 192 Kbps
Channel(s)                       : 2 channels
Channel positions                : Front: L R
Sampling rate                    : 48.0 KHz
Compression mode                 : Lossy
Stream size                      : 156 MiB (9%)


IMDB
IMDB Extra
More.Info
Category Japanese Movie
Rating
Size 1.75 GB
Show/Hide Files
5 files
AddDate 24/05/2011
Uploader ANONYMOUS
Speed 0 KB/sec
Down 940 times
peers seeds: 1, leechers: 0 = 1 peers
Who thanked
Report
Reseed


26/06/2012 12.26 am

thanks!
21/09/2011 11.18 am

@furansu   here's your english subtitle...  http://www.allsubs.org/subs-download/ghost-in-your-arms-again-2010/3716986/
21/09/2011 11.15 am

http://www.allsubs.org//search-subtitle/ghost+in+your+arms/20grin.gif
09/06/2011 11.49 am

i don't understand the language...
english sub please...cry.gif
28/05/2011 04.47 pm

sad.gif i want ENG SUB PLS  sad.gif smile1.gif + THANK YOU
24/05/2011 04.14 pm

Cool!!! I like Matsushima Nana-chan
24/05/2011 01.00 pm

I hope this gets subbed soon! It's quite good!
24/05/2011 12.20 pm

should i wait for the korean dvd to be released so i can watch the movie with english sub of course i wont undrstand any thing from it without sub ohhhhhhhhhhhh so sadsleep.gifcry.gif
i guess i will wait some one to relese the torrent wz english sub plzzzzz dont let us wait sad.gif
24/05/2011 10.37 am

looks like Korean DVD with English subs is coming out soon smile1.gif
http://www.yesasia.com/global/ghost-2010-dvd-english-subtitled-korea-version/1024404213-0-0-0-en/info.html
24/05/2011 10.21 am

im willing to donate $20 if anyone wants to sub this sad.gif
24/05/2011 09.46 am

Thank you...and...do you have a mkv/avi version?
24/05/2011 09.46 am

English subs please.. thankssmile1.gif
24/05/2011 09.39 am

this movie is really good!! i hope someone subs it
24/05/2011 08.39 am

NO SUBS???ohmy.gifohmy.gif




ADS