User Info

ADS

Torrent’s details
Name Let's Eat E11 HDTV XVID iPOP
  You will need to Register or Login to download!
Info Hash bcf198fc793f0a47f0e862503b9b0c10b5e23cac
Description

Details

Title: Siksyareul Habsida
Genre: Romance, comedy
Episodes: 16
Broadcast network: tvN
Broadcast period: 2013-Nov-28 to 2014-??-??
Air time: Thursdays 23:00
Subtitles by VIKI will be added later

Synopsis
What do a group of foodies and a murder have in common? Lee Soo Kyung (Lee Soo Kyung) is a 33-year-old divorcee who is a composed, confident woman who is happy to be living alone after marrying way too early in life. But the only thing that can make her lose her cool composure is great food. Living next door is another foodie, Goo Dae Young (Yoon Du Jun), a single man who loves surrounding himself with gourmet food but hates being asked if he is dining alone at great restaurants. When a strange murder occurs in their neighborhood, how will their lives be intertwined? “Let’s Eat” is a 2013 South Korean drama series directed by Park Joon Hwa.

Cast
People in Royal Family Officetel

Lee Soo Kyung as Lee Soo Kyung (33, room 805)
Yoon Doo Joon as Goo Dae Young (29, room 806)
Yoon So Hee as Yoon Jin Yi (23, room 807)
Kim Hak Moon Attorney's Office
Shim Hyung Tak as Attorney Kim Hak Moon (35)
Lee Do Yun as Attorney Oh Do Yun (29)
Jang Won Young as Choi Kyu Shik (40, office manager)
Jung Soo Young as Park Kyung Mi (33, Kyu Shik's wife)





Code
Video
ID                                       : 0
Format                                   : MPEG-4 Visual
Format profile                           : Advanced Simple@L5
Format settings, BVOP                    : No
Format settings, QPel                    : No
Format settings, GMC                     : No warppoints
Format settings, Matrix                  : Default (MPEG)
Codec ID                                 : XVID
Codec ID/Hint                            : XviD
Bit rate                                 : 1 391 Kbps
Width                                    : 624 pixels
Height                                   : 352 pixels
Display aspect ratio                     : 16:9
Frame rate                               : 29.970 fps
Color space                              : YUV
Chroma subsampling                       : 4:2:0
Bit depth                                : 8 bits
Scan type                                : Progressive
Compression mode                         : Lossy
Bits/(Pixel*Frame)                       : 0.211
Stream size                              : 660 MiB (87%)
Writing library                          : XviD 1.2.1 (UTC 2008-12-04)

Audio
ID                                       : 1
Format                                   : MPEG Audio
Format version                           : Version 1
Format profile                           : Layer 3
Mode                                     : Joint stereo
Mode extension                           : MS Stereo
Codec ID                                 : 55
Codec ID/Hint                            : MP3
Bit rate mode                            : Constant
Bit rate                                 : 128 Kbps
Channel(s)                               : 2 channels
Sampling rate                            : 48.0 KHz
Compression mode                         : Lossy
Stream size                              : 60.8 MiB (8%)
Alignment                                : Aligned on interleaves
Writing library                          : LAME3.98.2

IMDB No IMDB ID been added..
Category Korean TV
Rating
Size 707.30 MB
Show/Hide Files
1 file
AddDate 06/02/2014
Uploader ANONYMOUS
Speed 0 KB/sec
Down 344 times
peers seeds: 3, leechers: 0 = 3 peers
Who thanked
Report
Reseed


No comments...




ADS