User Info

ADS

Torrent’s details
Name Cruel Palace: War of the Flowers E03 HDTV 720p iPOP
  You will need to Register or Login to download!
Info Hash bbfa5ba6e6c0894001984e2c02b17a9b3af17b7f
Description


Details

Title: 궁중잔혹사 – 꽃들의 전쟁 / Goongjoongjanhoksa - KKotdeului Jeonjaeng
Also known as: Blood Palace / Palace's Cruel History – War of Flowers
Genre: Historical, melodrama, romance
Episodes: 50
Broadcast network: JTBC
Broadcast period: 2013-Mar-23 to 2013-??
Air time: Saturday & Sunday 20:45
Subtitles by Dramafever will be added later

Synopsis
A cruel story within the palace that depicts the battles between concubines in the palace who turns to the dark side in their bid to gain love from the king and power. It will centers around the beautiful but evil royal concubine Jo So Yong (Kim Hyun Joo) as she tries to gain the attention of King In Jo (Lee Duk Hwa) with her beauty and wit to control the power of the Joseon. When she succeeds, there is a bloody battle over the power she receives. She used to be of low class by birth, but she used her extraordinary beauty to get favor of King In Jo and came between King In Jo and Crown Prince So Hyun (Jung Sung Woon).

Cast
Kim Hyun Joo as Jo So Yong (Yam Jun)
Lee Chae Mi (이채미) as child Yam Jun
Lee Duk Hwa as King In Jo
Song Sun Mi as Lady Min Hee Bin of Kang clan
Jung Sung Mo as Kim Ja Jum
Jung Sung Woon as Crown Prince So Hyun
Kim Joo Young as Prince Bong Rim
Go Won Hee (고원희) as Queen Jang Ryul of Jo clan
Jun Tae Soo as Nam Hyuk
Jung Sun Kyung as Han Ok
Son Byung Ho as Lee Hyung Ik
Seo Yi Sook (서이숙) as Sul Jook
Lee Seol Hee (이설희) as Yoo Duk
Lee Seo Yun (이서연) as Park Sook Ui
Kim Ha Kyoon as Choi Myung Gil
Han In Soo as Kim Sang Hun
Kim Kyu Chul as Shim Gi Won
Woo Hyun as Kim In
Nam Neung Mi as Nam Hyuk's mother
Kim San (김산) as Ma Bo Dae

Production Credits
Production Company: Drama House
Chief Producer: Jo Joon Hyung (조준형)
Producer: Shin Dong Ki (신동기), Ko Jung Ho (고정호)
Director: Noh Jong Chan (노종찬)
Screenwriter: Jung Ha Yun




Code
Video
ID                                       : 0
Format                                   : AVC
Format/Info                              : Advanced Video Codec
Format profile                           : Baseline@L3.1
Format settings, CABAC                   : No
Format settings, ReFrames                : 1 frame
Codec ID                                 : H264
Duration                                 : 1h 7mn
Bit rate                                 : 3 017 Kbps
Width                                    : 1 280 pixels
Height                                   : 720 pixels
Display aspect ratio                     : 16:9
Frame rate mode                          : Variable
Frame rate                               : 29.970 fps
Color space                              : YUV
Chroma subsampling                       : 4:2:0
Bit depth                                : 8 bits
Scan type                                : Progressive
Bits/(Pixel*Frame)                       : 0.109
Stream size                              : 1.43 GiB (95%)

Audio
ID                                       : 1
Format                                   : MPEG Audio
Format version                           : Version 1
Format profile                           : Layer 3
Mode                                     : Joint stereo
Mode extension                           : MS Stereo
Codec ID                                 : 55
Codec ID/Hint                            : MP3
Duration                                 : 1h 7mn
Bit rate mode                            : Constant
Bit rate                                 : 128 Kbps
Channel(s)                               : 2 channels
Sampling rate                            : 44.1 KHz
Compression mode                         : Lossy
Stream size                              : 62.1 MiB (4%)
Alignment                                : Aligned on interleaves
Interleave, duration                     : 26 ms (0.78 video frame)
Writing library                          : LAME3.98.2




IMDB No IMDB ID been added..
Category Korean TV 720p-1080p
Rating N/A
Size 1.43 GB
Show/Hide Files
1 file
AddDate 30/03/2013
Uploader ANONYMOUS
Speed 0 KB/sec
Down 128 times
peers seeds: 0, leechers: 0 = 0 peers
Who thanked
Report
Reseed


16/09/2013 08.40 pm

Thank You...tongue.gif
01/04/2013 07.07 pm

Thanks!




ADS