User Info

ADS

Torrent’s details
Name Female Doctor Flesh Slave (CAT III)
  You will need to Register or Login to download!
Info Hash bbf4a3591f07f34c05909de1fb7e68e53aa39a72
Description





AKA: JOI NIKU DOREI
Year: 1986
Directed: Katsuhiko Fujii
Genre: Erotica
Runtime 1:06:39
Country: Japan
Language: Japanese
Subtitles: Chinese


---File/video technical info---

<Video>
Format                           : AVI
File size                        : 709 MiB
Overall bit rate                 : 1 487 Kbps
Format                           : AVC
Format profile                   : High@L5.1
Codec ID                         : X264
Codec ID/Info                    : XiWave GNU GPL x264 MPEG-4
Bit rate                         : 1 088 Kbps
Width                            : 856 pixels
Height                           : 476 pixels
Display aspect ratio             : 16:9
Frame rate                       : 29.970 fps
Resolution                       : 24 bits
Colorimetry                      : 4:2:0
Bits/(Pixel*Frame)               : 0.089
Stream size                      : 519 MiB (73%)

<Audio>
Format                           : AC-3
Format/Info                      : Audio Coding 3
Bit rate mode                    : Constant
Bit rate                         : 384 Kbps
Channel(s)                       : 2 channels
Channel positions                : L R
Sampling rate                    : 48.0 KHz
Video delay                      : 9ms
Stream size                      : 183 MiB (26%)
Alignment                        : Split accross interleaves
Interleave, duration             : 33 ms (1.00 video frame)

Cast:  
Kaori Asou
Jun Nakahara
Yasuko Takahashi
Jun Takemi

Plot:
Story: Kaori Aso plays a warm and kind female doctor. She has a fiancee who is also a doctor working in the same hospital. The head nurse has her eye on Aso's fiancee. One day the head nurse passes a porn flick to the fiancee in which the lead actress resembles Aso (but it is not her). The fiancee asks Aso how she could be so shameless as to make a porn flick, rapes her, and calls off the wedding. To clear her name, Aso confronts the head nurse who says she got it from a bar owner. Aso finds the bar owner and tries to find out the origin of the tape. The bar owner agrees to help her and subsequently calls her to meet a person who knows about the tape. It turns out to be a trap and they rape her while making her watch her "double" making a porn flick. While watching this, she makes a note of who the male lead is. Finally, she finds the male lead and hopes he will clear her name. He pretends to agree, takes her home, then tells her he dosen't believe her, and rapes her. After the rape, he realizes that it is indeed not Aso who was the lead actress. He goes and tells the fiancee and after investigation, the fiancee realizes he has made a big mistake, and asks Aso for forgiveness. Of course, after all of this, she really wants to be a porn actress instead of a female doctor.


Thanks to arbitrage thumbsup.gif




Please leave a comment for the hard work....it does not hurt whistle.gif
IMDB No IMDB ID been added..
Category Japan - Erotica/+18
Rating
Size 709.13 MB
Show/Hide Files
1 file
AddDate 31/08/2009
Uploader ANONYMOUS
Speed 0 KB/sec
Down 1529 times
peers seeds: 4, leechers: 0 = 4 peers
Who thanked
Report
Reseed


20/11/2013 01.42 pm

thanks man
27/08/2013 08.37 am

Eng subtitle not avl.. Can any1 tell where i can get eng subtitlecool2.gif
19/09/2012 01.05 am

Thanks
I love pinku
More if any.........
03/05/2011 05.04 pm

thanks bro  8)
04/12/2010 05.38 am

i like chinese subtongue.gif,thx
26/11/2010 08.01 pm

Wow thats alot of rape!
loool sounds good...thanks




ADS