User Info

ADS

Torrent’s details
Name The Fugitive Plan B HDTV 1080i E05-E08
  You will need to Register or Login to download!
Info Hash b8f6c0544577fe46625fc100a096b5bf6fdadd82
Description

Details

   * Title: 도망자: Plan B / Do Mang Ja: Plan B
   * Also Known as: Runaway: Plan B
   * Genre: Action, romance, comedy
   * Episodes: 20
   * Broadcast Network: KBS2
   * Broadcast period: 2010-Sep-29 to 2010-Dec-02
   * Air time: Wednesday & Thursday 21:55
   subs:eng.softsubs

Synopsis

During the Korean War, a vast amount of money disappeared. Now, some 60 years later, the money has reappeared, leading to a frantic chase across the globe. Jin Yi (Lee Na Young) is a seemingly innocent woman who has hidden motives for approaching Ji Woo (Bi). Her plans are complicated by an unexpected romance developing between them, as well as the numerous pursuers hot on their trail. Kieko (Uehara Takako) is a famous Japanese singer who also gets tangled up in a relationship with this man. Little do they know that her father Hiroki (Takenaka Naoto), apart from being a business man, is a powerful yakuza. In this love triangle, who will finally win the love of Ji Woo?

Cast

   * Bi as Ji Woo
   * Lee Na Young as Jin Yi / Jini K.
   * Lee Jung Jin as Chief Detective Do Soo
   * Yoon Jin Seo as Detective Yoon So Ran
   * Daniel Henney as Kai
   * Sung Dong Il as Nakamura Hwang
   * Yoon Son Ha as Hwang Mi Jin
   * Takenaka Naoto as Hiroki (Kieko's father)
   * Uehara Takako as Kieko
   * Gong Hyung Jin as Master Jang
   * Josie Ho as Hwa Yi
   * Jo Hee Bong as James Bong
   * Ti Lung as General Wie
   * Song Jae Ho as Yang Doo Hee
   * Kim Eung Soo as Yang Young Joon (Doo Hee's son)
   * Danny Ahn as Baek Nam Jung
   * Kim Hyung Jong as Detective Kim
   * Jung Seung Kyo (정승교) as Detective Lee
   * Kim Soo Hyun (김수현) as Detective Park
   * Kim Soo Hyun as Sophie / Secretary Im
   * Song Shi Yeon (송시연) as Nakamura Hwang's secretary
   * Oh Ji Ho as Kevin (cameo)
   * Han Jung Soo as corrupt detective (cameo)
   * Lee Jong Hyuk as screening room interpreter (cameo)
   * Kwak Hyun Hwa as Ji Woo's office secretary (cameo)
   * Lee Da Hae as Hye Won (cameo)
   * MBLAQ (cameo)
   * Ahn Suk Hwan (cameo - Ep. 3)

Production Credits

   * Director: Kwak Jung Hwan
   * Screenwriter: Chun Sung Il

Format                           : MPEG-TS
File size                        : 8.41 GiB
Duration                         : 1h 5mn
Overall bit rate                 : 18.3 Mbps

Video
ID                               : 33 (0x21)
Menu ID                          : 1 (0x1)
Format                           : MPEG Video
Format version                   : Version 2
Format profile                   : Main@High
Format settings, BVOP            : Yes
Format settings, Matrix          : Default
Duration                         : 1h 5mn
Bit rate mode                    : Variable
Bit rate                         : 16.6 Mbps
Nominal bit rate                 : 17.4 Mbps
Width                            : 1 920 pixels
Height                           : 1 080 pixels
Display aspect ratio             : 16:9
Frame rate                       : 29.970 fps
Standard                         : Component
Resolution                       : 8 bits
Colorimetry                      : 4:2:0
Scan type                        : Interlaced
Scan order                       : Top Field First
Bits/(Pixel*Frame)               : 0.267
Stream size                      : 7.65 GiB (91%)

Audio
ID                               : 36 (0x24)
Menu ID                          : 1 (0x1)
Format                           : AC-3
Format/Info                      : Audio Coding 3
Duration                         : 1h 5mn
Bit rate mode                    : Constant
Bit rate                         : 384 Kbps
Channel(s)                       : 2 channels
Channel positions                : L R
Sampling rate                    : 48.0 KHz
Stream size                      : 181 MiB (2%)
Language                         : English

IMDB No IMDB ID been added..
Category Korean TV 720p-1080p
Rating
Size 33.33 GB
Show/Hide Files
8 files
AddDate 21/11/2010
Uploader ANONYMOUS
Speed 0 KB/sec
Down 39 times
peers seeds: 0, leechers: 0 = 0 peers
Who thanked
Report
Reseed


24/12/2010 07.34 pm

tried to watch, but the sub didn't work, any ideas?(playing with vlc player)
29/11/2010 09.08 pm

many many many Thnx




ADS