User Info

ADS

Torrent’s details
Name The Gangster 2012 720p BluRay x264 DTS IGUANA[Eng Sub]
  You will need to Register or Login to download!
Info Hash b854eb9b7b987f66fc090fb9e9853350f29a7517
Description
Audio Sound: Thai
Subtitle Embed On/Off: English


Rated R for strong violence including a rape, sexual content, some drug use and language





Director: Kongkiat Khomsiri
Stars: Krisada Sukosol Clapp, Somchai Kemglad, Sakarin Suthamsamai
Country: Thailand
Language: Thai
Release Date: 14 June 2012 (Thailand)
Also Known As: The Gangster
Runtime: 114 min

          The highly-stylized film is set one year later than 2499 and opens with Daeng (Somchai Kemgald) asking his best mate George (Krissada Sukosol Clapp) to join a new gang that will run the rule over the illegal bars and casinos belonging to Hea Lor. But it’s not long before hard-headed gang member Pu begins undermining Daeng’s leadership and attempts to wipe out his followers. When Daeng decides to escape the bloodshed by becoming a monk, George vows to deal with Pu by himself.
          Not long after, Bangkok comes under the rule of Field Marshal Sarit Thanarat, who proposes to wipe out the entrenched gangster culture, and George is briefly imprisoned. On his release, he learns that Daeng and Pu are both dead. He returns to work for Hea Lor where he meets the new generation of gangsters, led by Thong and Peak, who idolize and wish to emulate him. But when the old head expresses a desire to put an end to the senseless killings, he loses the youngsters’ respect and Thong turns to O-Tee (Frank Pachon), a new member who subscribes to a very different code of morality. And that’s the crux of the film: without over-moralizing, it delves into the changing face of the Thai gangster in a society that is itself coming to grips with rapid progress.
















Code
Complete name : The.Gangster.2012.720p.BluRay.x264.DTS-IGUANA.mkv
Format : Matroska
Format version : Version 2
File size : 5.46 GiB
Duration : 1h 54mn
Overall bit rate : 6 821 Kbps
Encoded date : UTC 2013-07-24 01:15:35
Writing application : mkvmerge v5.7.0 ('The Whirlwind') built on Jul 8 2012 20:08:51
Writing library : libebml v1.2.3 + libmatroska v1.3.0

Video
ID : 1
Format : AVC
Format/Info : Advanced Video Codec
Format profile : High@L4.1
Format settings, CABAC : Yes
Format settings, ReFrames : 5 frames
Codec ID : V_MPEG4/ISO/AVC
Duration : 1h 54mn
Bit rate : 5 314 Kbps
Width : 1 280 pixels
Height : 688 pixels
Display aspect ratio : 1.85:1
Frame rate mode : Constant
Frame rate : 23.976 fps
Color space : YUV
Chroma subsampling : 4:2:0
Bit depth : 8 bits
Scan type : Progressive
Bits/(Pixel*Frame) : 0.252
Stream size : 4.14 GiB (76%)
Writing library : x264 core 133 r2334 a3ac64b
Encoding settings : cabac=1 / ref=5 / deblock=1:0:0 / analyse=0x3:0x133 / me=umh / subme=7 / psy=1 / psy_rd=1.00:0.00 / mixed_ref=1 / me_range=16 / chroma_me=1 / trellis=1 / 8x8dct=1 / cqm=0 / deadzone=21,11 / fast_pskip=0 / chroma_qp_offset=-2 / threads=12 / lookahead_threads=2 / sliced_threads=0 / nr=0 / decimate=1 / interlaced=0 / bluray_compat=0 / constrained_intra=0 / bframes=3 / b_pyramid=2 / b_adapt=2 / b_bias=0 / direct=3 / weightb=1 / open_gop=0 / weightp=2 / keyint=250 / keyint_min=23 / scenecut=40 / intra_refresh=0 / rc_lookahead=50 / rc=2pass / mbtree=1 / bitrate=5314 / ratetol=1.0 / qcomp=0.60 / qpmin=0 / qpmax=69 / qpstep=4 / cplxblur=20.0 / qblur=0.5 / ip_ratio=1.40 / aq=1:1.00
Language : English
Default : Yes
Forced : No

Audio
ID : 2
Format : DTS
Format/Info : Digital Theater Systems
Mode : 16
Format settings, Endianness : Big
Muxing mode : Header stripping
Codec ID : A_DTS
Duration : 1h 54mn
Bit rate mode : Constant
Bit rate : 1 509 Kbps
Channel(s) : 6 channels
Channel positions : Front: L C R, Side: L R, LFE
Sampling rate : 48.0 KHz
Bit depth : 24 bits
Compression mode : Lossy
Stream size : 1.21 GiB (22%)
Language : Thai
Default : Yes
Forced : No

Text
ID : 3
Format : UTF-8
Codec ID : S_TEXT/UTF8
Codec ID/Info : UTF-8 Plain Text
Language : English
Default : Yes
Forced : No

Menu
00:00:00.000 : en:00:00:00.000
00:10:27.961 : en:00:10:27.961
00:15:39.605 : en:00:15:39.605
00:27:52.671 : en:00:27:52.671
00:37:02.387 : en:00:37:02.387
00:42:28.755 : en:00:42:28.755
00:55:35.249 : en:00:55:35.249
01:04:15.185 : en:01:04:15.185
01:13:25.276 : en:01:13:25.276
01:23:15.574 : en:01:23:15.574
01:32:18.742 : en:01:32:18.742
01:43:53.436 : en:01:43:53.436



IMDB
IMDB Extra
More.Info
Category Thai Movie 720p-1080p
Rating N/A
Size 5.46 GB
Show/Hide Files
1 file
AddDate 24/07/2013
Uploader ANONYMOUS
Speed 0 KB/sec
Down 134 times
peers seeds: 0, leechers: 0 = 0 peers
Who thanked
Report
Reseed


29/07/2013 11.37 am

Yes there is Talulu. There is English sub embedded in this release for sure as I am watching it right now.
25/07/2013 07.01 pm

There s no sub embedded in this release sad.gif
24/07/2013 07.50 pm

thanks so much!
24/07/2013 07.42 pm

hi, can anybody rip the embedded english subtitles from this? i have another version rip of this IGUANA version, it doesnt came with embedded english subtitles, thx in adv.




ADS