User Info

ADS

Torrent’s details
Name Lotus Lantern (2005)
  You will need to Register or Login to download!
Info Hash b846c13aa0a8f55f88065309741fc7b14c4d99be
Description


Details    
   
  • Name: ??? / Bao Lian Deng
       
  • English title: Lotus Lantern
       
  • Genre: Fantasy
       
  • Episodes: 35
       
  • Broadcast network: CCTV-8
       
  • Broadcast period: 2005-Oct-04 to 2005-Oct
       
  • wiki: [url]http://wiki.d-addicts.com/Lotus_Lantern_(2005)[/url]
       
  • Subtitle: English softsubs

    Synopsis
    San Sheng Mu was a kind and beautiful deity who saved the life of Liu Yan Chang, a mortal scholar. The two fell in love and had a son, Chen Xiang. San Sheng Mu's older brother, Er Lang Shen, found out about their romance and led the Heavenly Brigade in pursuit of the family. During this time of peril, San Sheng Mu gave the Lotus Lantern to Yan Chang to protect him and their son. Soon she was captured and pinned beneath Mount Hua. Thereafter, Yan Chang and Chen Xiang hid in a small village making a meager living. Sixteen years later, Chen Xiang has grown up. One day he discovers that he possesses some mysterious powers, such as the ability to pass through walls. However, these powers begin to attract the attention of Er Lang Shen and Xiao Tian Quan, thus Yan Chang must tell his son the story of their forbidden past. After learning of his mother's imprisonment at the hands of his uncle, Chen Xiang sets out on a journey to rescue her. -- Lady Zhuge

    Cast    

       
  • Cao Jun as Chen Xiang
       
  • Shu Chang as Xiao Yu
       
  • Vincent Jiao as Er Lang Shen
       
  • Liu Xiao Qing as Heavenly Matriarch
       
  • Wang Wei Guo as Jade Emperor
       
  • Liu Guan Xiang as 8th Prince
       
  • Yvonne Lim as Ding Xiang
       
  • Chen Chuang (??) as Xiao Tian Quan
       
  • Tian Er Xi (???) as Tai Bai Jin Xing / Venus
       
  • Ding Jian (??) as Sun Wu Kong / Lao Dao
       
  • Xie Ning (??) as Zhu Ba Jie
       
  • Wu Guo Hua (???) as Demon Bull King / King of Yan
       
  • Wang Yong Gui (???) Mei Shan Lao Da / King Dragon of Mount Mei
       
  • Li Bao Cheng (???) as Mei Shan Lao Er (2)
       
  • Zhao Shu Jun (???) as Mei Shan Lao Si (4)
       
  • Li Jian Xun (???) as Mei Shan Lao Liu (6)
       
  • Liu Jie (??) as Guan Yin
       
  • Zhang Sheng Chao (???) as Na Zha
       
  • Shi Liang (??) as Hong Hai'er / Red Boy
       
  • Luo Wei (??) as 4th Princess
       
  • Zhu Ya Ying (???) as Mrs. Ding
       
  • Ma Li Qing (???) as Princess Iron Fan
       
  • Yang Si (??) as Jade Fox
       
  • Wang Wen Sheng as Mo Li Qing
       
  • Ma Jie Lin (???) as Mo Li Hong
       
  • Tian Xue Min (???) as Mo Li Hai
       
  • Zhao Qi (??) as Mo Li Shou
       
  • Li Jia Yi (???) as Li Tian Wang
       
  • Zong Feng Yan as Qian Tie Zhu
       
  • Luo Guang Yue (???) as Hei Wu Chang
       
  • Wan Ni En as Cui Gu / Bai Wu Chang
       
  • Li Dou (??) as Mr. Cui
       
  • Cheng Su Dong (???) as Gou Dan
       
  • Tang Ying (??) as Gou Dan's mother
       
  • Wang Xiang (??) as Zhu Zi
       
  • Liu Shu Xing (???) as Ding An
       
  • Lu Bing (??) as Qian Tian Fu
       
  • Yao Chang Jiang (???) as Deng Zhong
       
  • Xi Xian Feng (???) as Xin Huan
       
  • Yuan Han (??) as Mu Zha
       
  • Shen Jie (??) as Lao Bao
       
  • Ye Yi Na (???) as Hundred Flowers Fairy
       
  • Deng Jia (??) as Flower Fairy Jia
       
  • Guo Ye (??) as Flower Fairy Yi
       
  • Wang Jia Yu (???) as Flower Fairy Bing
       
  • Zhang Nan (??) as Flower Fairy Ding

    Production Credits

       
  • Screenwriters: Jiu Nian (??), Li Hong Wei (???)
       
  • Chief producer: Li Jian (??)
       
  • Producers: Gao Jian Min (???), Li Gong Da (???), Jia Xiao Chen (???), Song Dan (??), Chen Wei Sheng (???)
       
  • Executive producer: Zhang Zeng Xiang (???)
       
  • Directors: Yu Man Sang (???), Zhao Jian
       
  • Music: Zhou Zhi Yong (???), Zhang Chao (??)

    Technical Details

    Video
    Duration                         : 41mn 59s
    Bit rate                         : 2 442 Kbps
    Width                            : 712 pixels
    Height                           : 480 pixels
    Display aspect ratio             : 4:3
    Original display aspect ratio    : 4:3
    Frame rate                       : 29.970 fps
    Color space                      : YUV
    Chroma subsampling               : 4:2:0
    Bit depth                        : 8 bits
    Scan type                        : Progressive
    Bits/(Pixel*Frame)               : 0.238
    Stream size                      : 733 MiB (91%)
    Writing library                  : x264 core 79
    Encoding settings                : cabac=1 / ref=2 / deblock=1:0:0 / analyse=0x1:0x111 /
    Source: DVD9

    Audio
    ID                               : 2
    Format                           : AC-3
    Format/Info                      : Audio Coding 3
    Mode extension                   : CM (complete main)
    Codec ID                         : A_AC3
    Duration                         : 41mn 59s
    Bit rate mode                    : Constant
    Bit rate                         : 192 Kbps
    Channel(s)                       : 2 channels
    Channel positions                : Front: L R
    Sampling rate                    : 48.0 KHz
    Bit depth                        : 16 bits
    Compression mode                 : Lossy
    Stream size                      : 57.7 MiB (7%)
    Language                         : Chinese

    Text
    ID                               : 3
    Format                           : VobSub
    Codec ID                         : S_VOBSUB
    Codec ID/Info                    : The same subtitle format used on DVDs
    Language                         : English





  • IMDB No IMDB ID been added..
    Category Chinese TV
    Rating N/A
    Size 28.91 GB
    Show/Hide Files
    37 files
    AddDate 11/06/2011
    Uploader ANONYMOUS
    Speed 0.05 KB/sec
    Down 215 times
    peers seeds: 5, leechers: 0 = 5 peers
    Who thanked
    Report
    Reseed


    17/12/2013 01.36 am

    Thanks for sharing
    16/05/2013 08.56 pm

    Um... Can anyone else see the Ghost in the Shell picture randomly in this? And by that, I'm referring to the anime picture. tongue.gif
    15/04/2013 04.50 am

    reseed plz
    26/07/2012 09.15 pm

    Thanks,this television show reminds me of "The Red Kid."
    05/01/2012 05.57 pm

    subtitle in english or chinese?coz in SS subtite in chieses
    17/06/2011 08.14 pm

    Not getting any subtitles on episode 15. Tried with MPC and VLC :/
    13/06/2011 03.02 am

    Thank you very much lirnosh smile1.gif
    11/06/2011 08.24 pm

    It's in Mandarin.
    11/06/2011 08.20 pm

    ok is it manderian or cantos
    11/06/2011 08.15 pm

    No..its my own DVD-rip.
    11/06/2011 08.12 pm

    did u make these from the dvd rip from d-addicts?




    ADS