User Info

ADS

Torrent’s details
Name [TVB] The Justice of Life (1989) Complete Series - Stephen Chow [xvid]
  You will need to Register or Login to download!
Info Hash b7036bc6468dbc5483d5e9e8dff672172f48f16d
Description




Other Titles: Ta Loi Ji Kong Wu
Year: 1989
Genre: Comedy
Runtime: 1304 min.
Number of Episodes: 30
Country: Hong Kong
Language: Cantonese
Subtitles: English | Traditional Chinese | Simplified Chinese (idx, sub)
More info at: Imdb, Drama Wiki & Hkcinemagic
Source: KG (credits go to Nine99)


Cast:

Stephen Chow Sing Chi
Kwan Hoi San
Lee Heung Kam
Alex Man Chi Leung
Teresa Mo Sun Kwan
Cutie Mui Siu Wai
Ng Man Tat
Andy Dai Chi Wai
Tien Niu
Anthony Wong Chau Sang
Chan Ga Jin
Alan Chui Chung San
Ding Yan
Patrick Hon Jun
Hui Siu Hung


Synopsis/Plot:

The unstoppable trio of Stephen Chow, Ng Man Tat, and writer-director Lee Lik Chi ruled Hong Kong cinema in the 1990s with blockbuster comedies like Flirting Scholar, God of Cookery, and The King of Comedy, but their golden collaboration actually began in television. In 1989, they collaborated in two extremely popular TVB dramas, the nonsensical martial arts comedy The Final Combat and urban drama The Justice of Life, launching Stephen Chow into great fame. Fondly remembered as one of the best TVB dramas of all time, The Justice of Life features Stephen Chow and Ng Man Tat as a memorable father-son duo, with Chow displaying his unique brand of motormouth "mo lei tau" everyman humor that would later drive his films. Leading the cast is film and television star Alex Man, along with his future wife Tanny Tien and many actors who now form the backbone of Hong Kong cinema, including Anthony Wong, Teresa Mo, Hui Siu Hung, and Wong Yat Fei. Truly one of the classics of Hong Kong television, The Justice of Life draws both laughter and tears with its down-to-earth humor and moving depiction of family, love, and brotherhood. (Allmovie, yesasia.com)


















Coming soon in high quality:

  • In the Line of Duty I - Royal Warriors (1986) (Cantonese)
  • In the Line of Duty II - Yes Madam/Police Assassins (1985) (Cantonese)
  • Iron Monkey 2 (1996) (Cantonese)
  • Prodigal Son (1981) incl. Extras (Cantonese)
  • The Postman Fights Back (1982) (Cantonese)


    Coming soon from the hard to find section:

  • High Voltage/Asian Cop (1995) (Cantonese)
  • Hunted Hunter/File X Murderer (1997) (Cantonese/Mandarin)
  • No Problem 2 (2002) (Cantonese, Japanese)
  • Setting Sun/Rakuyo (1992) (Japanese)


    Due to my internet connection my upload speed is limited to 100-150 kb/s. So I only seed to 6 leechers at a time. Sorry for the inconvenience. Please be patient!



    Code

    Format                           : AVI
    Format/Info                      : Audio Video Interleave
    File size                        : 348 MiB
    Duration                         : 43mn 28s
    Overall bit rate                 : 1 119 Kbps
    Movie name                       : Ta loi ji kong wu - S01E01
    Director                         : Ripped by Nine99
    Writing application              : VirtualDubMod 1.5.10.2 (build 2540/release)
    Writing library                  : VirtualDubMod build 2540/release

    Video
    ID                               : 0
    Format                           : MPEG-4 Visual
    Format profile                   : Advanced Simple@L5
    Format settings, BVOP            : 2
    Format settings, QPel            : Yes
    Format settings, GMC             : No warppoints
    Format settings, Matrix          : Custom
    Codec ID                         : XVID
    Codec ID/Hint                    : XviD
    Duration                         : 43mn 28s
    Bit rate                         : 915 Kbps
    Width                            : 704 pixels
    Height                           : 544 pixels
    Display aspect ratio             : 1.294
    Frame rate                       : 29.970 fps
    Color space                      : YUV
    Chroma subsampling               : 4:2:0
    Bit depth                        : 8 bits
    Scan type                        : Progressive
    Compression mode                 : Lossy
    Bits/(Pixel*Frame)               : 0.080
    Stream size                      : 284 MiB (82%)
    Writing library                  : XviD 1.2.1 (UTC 2008-12-04)

    Audio
    ID                               : 1
    Format                           : AC-3
    Format/Info                      : Audio Coding 3
    Mode extension                   : CM (complete main)
    Codec ID                         : 2000
    Duration                         : 43mn 28s
    Bit rate mode                    : Constant
    Bit rate                         : 192 Kbps
    Channel(s)                       : 2 channels
    Channel positions                : Front: L R
    Sampling rate                    : 48.0 KHz
    Bit depth                        : 16 bits
    Compression mode                 : Lossy
    Stream size                      : 59.7 MiB (17%)
    Alignment                        : Split accross interleaves
    Interleave, duration             : 33 ms (1.00 video frame)
    Interleave, preload duration     : 500 ms



  • IMDB
    IMDB Extra
    More.Info
    Category Hong Kong TV
    Rating
    Size 10.46 GB
    Show/Hide Files
    92 files
    AddDate 15/04/2011
    Uploader ANONYMOUS
    Speed 3.23 KB/sec
    Down 801 times
    peers seeds: 3, leechers: 1 = 4 peers
    Who thanked
    Report
    Reseed


    14/01/2013 07.22 am

    plz hw to sub thid
    27/08/2012 06.19 pm

    wow.... thanks man... I didnt know Chow plays in a serie... laugh.gif[b][/b]
    28/06/2012 06.08 am

    Thanks you so much. tongue.gif
    21/03/2012 07.22 am

    I want see this TV Show since a long time, Thanks grin.gif
    21/12/2011 04.49 pm

    I didn't even know there was a Stephen Chow TV show until this week!  Thank you thank you thank you!
    11/05/2011 04.20 am

    A pleasant show where Stephen Chow-Sui is a spoiled favourite brat, and Alex Man-Tin is a suprising Big Brother and still there's no central character ...
    In trailer there are some glimpses on another CHOW's TV series with his favourite partner Ng Man-Tat - FINAL COMBAT.
    Is there any chance to see it or has anyone had a chance to see it?
    08/05/2011 09.57 pm

    thanks

    seems there is some stuff i don't know yet wink.gif
    03/05/2011 03.56 am

    Thanks!
    grin.gif
    30/04/2011 10.29 am

    Wow..Cool..I love stephen chow..thanks...
    18/04/2011 11.54 am

    Thanks! Look forward to watching it! grin.gif
    17/04/2011 05.36 pm

    seems cool as hell !
    16/04/2011 02.54 am

    Brings back a lot of memories. Thanks so much for this smile1.gif
    16/04/2011 01.11 am

    Yhank you, such rarity with Stephen Chow.
    15/04/2011 09.18 pm

    amazing!
    15/04/2011 09.06 pm

    Wonderful Upload..




    ADS