User Info

ADS

Torrent’s details
Name Love At 4 Size (English Hardsubbed)
  You will need to Register or Login to download!
Info Hash b589175b292502b89c65ab62ad987da9b0f183e9
Description


Summary: A romantic film about teenage love that sparks during a music festival. The film revolves around young people who find different experiences of love.
Release Date: March 03, 2011
Rating: น 13+
Genre: Drama, Romance
Duration: 1:27
Actors: Alex Rendell, Apinya Sakuljaroensuk, Irada Siriwut, Jirayu La-ongmanee, Nuttapong Pibultanakiet, Tisanart Sornseuk
Director: Chainarong Tampong
Also Known As: Love Julinsee
Country: Thailand
Language: Thai
Subtitles: English (hardsubbed)



-------------------------------------------------------------------
Video
ID                               : 0
Format                           : MPEG-4 Visual
Format profile                   : Advanced Simple@L5
Format settings, BVOP            : 2
Format settings, QPel            : No
Format settings, GMC             : No warppoints
Format settings, Matrix          : Default (H.263)
Muxing mode                      : Packed bitstream
Codec ID                         : XVID
Codec ID/Hint                    : XviD
Duration                         : 1h 27mn
Bit rate                         : 905 Kbps
Width                            : 720 pixels
Height                           : 416 pixels
Display aspect ratio             : 16:9
Frame rate                       : 25.000 fps
Color space                      : YUV
Chroma subsampling               : 4:2:0
Bit depth                        : 8 bits
Scan type                        : Progressive
Compression mode                 : Lossy
Bits/(Pixel*Frame)               : 0.121
Stream size                      : 568 MiB (66%)
Writing library                  : XviD 64

Audio
ID                               : 1
Format                           : AC-3
Format/Info                      : Audio Coding 3
Mode extension                   : CM (complete main)
Codec ID                         : 2000
Duration                         : 1h 27mn
Bit rate mode                    : Constant
Bit rate                         : 448 Kbps
Channel(s)                       : 6 channels
Channel positions                : Front: L C R, Side: L R, LFE
Sampling rate                    : 48.0 KHz
Bit depth                        : 16 bits
Compression mode                 : Lossy
Stream size                      : 281 MiB (33%)
Alignment                        : Split accross interleaves
Interleave, duration             : 40 ms (1.00 video frame)
Interleave, preload duration     : 500 ms

IMDB
IMDB Extra
More.Info
Category Thai Movie
Rating
Size 855.56 MB
Show/Hide Files
1 file
AddDate 18/07/2011
Uploader ANONYMOUS
Speed 0 KB/sec
Down 1273 times
peers seeds: 0, leechers: 0 = 0 peers
Who thanked
Report
Reseed


09/06/2013 02.17 pm

thanks...
29/05/2013 06.36 pm

@Romelyn_Travallo - You need a torrent client first.
1. Download torrent client (search for Utorrent or BitTorrent) and install
2. Click the title above beside "TorrentDownload" and you will download a .torrent file
3. Open the torrent file with the torrent client you just installed.

smile1.gif
14/03/2013 06.04 am

please, how can i download it here? i'm craving for this so please help mecry.gif
31/07/2011 03.50 pm

thanks for the upload, movie looks gooD can't wait to watch =D
19/07/2011 12.34 am

Thanks man, you are my hero! I've been waiting for a subbed version of this movie! Thank you so much wink.gif




ADS