User Info

ADS

Torrent’s details
Name Bad.Couple.2010.DVDRip.x264.AC3-BAUM
  You will need to Register or Login to download!
Info Hash b50e1ab1caf745a970cf35b59c94e23f84469fa4
Description Bad Couple (2010)



Title: Bad Couple (2010)
Original Title: 불량남녀 (Sa-rang-eun Bit-eul Ta-go)
Country: South Korea
Language: Korean
Film Genre: Comedy | Romantic comedy | Romance  
Subtitles: English(srt/idx,sub), Korean(smi/idx,sub)
Director: Sin Geun-ho
Cast: Im Chang-jeong, Eom Ji-won, Jeong Eun-woo, Sa Hee, Kang Jae-seop, Lee Jae-goo
Info Link: http://www.hancinema.net/korean_movie_Love_on_the_Debt.php
Source: DVD Rental

Plot or Synopsis
Also known as "Bad Man and Woman"
A comedy movie that tells the story of a criminal detective with bad credit and a bond company worker who argue and eventually fall in love.

Detective Bang Keuk-Hyun (Lim Chang Jung) falls into debt after a loan he guaranteed for a friend becomes delinquent. Kim Mu-Ryeong (Uhm Ji-Won) works as a customer relations representative for a credit company. Her job is to go after debtors day and night. Detective Bang Keuk-Hyun is her next assignment. The few times that Det. Bang Keuk-Hyun answers Mu-Ryeong's persistent calls he berates her with profanity. The two then meet at the police station without knowing each other's identity at first ...


 General
   Complete name : Bad.Couple.2010.DVDRip.x264.AC3-BAUM.mkv
   Format : Matroska
   File size : 1.46 GiB
   Duration : 1h 47mn
   Overall bit rate : 1 930 Kbps
   Encoded date : UTC 2011-01-30 13:30:58
   Writing application : mkvmerge v4.4.0 ('Die Wiederkehr') built on Oct 31 2010 21:52:48
   Writing library : libebml v1.0.0 + libmatroska v1.0.0
 
 Video #0
   ID : 1
   Format : AVC
   Format/Info : Advanced Video Codec
   Format profile : High@L3.0
   Format settings, CABAC : Yes
   Format settings, ReFrames : 4 frames
   Format settings, GOP : M=4, N=32
   Muxing mode : Container profile=Unknown@3.0
   Codec ID : V_MPEG4/ISO/AVC
   Duration : 1h 47mn
   Bit rate : 1 480 Kbps
   Width : 720 pixels
   Height : 304 pixels
   Display aspect ratio : 2.35:1
   Frame rate : 23.976 fps
   Color space : YUV
   Chroma subsampling : 4:2:0
   Bit depth : 8 bits
   Scan type : Progressive
   Bits/(Pixel*Frame) : 0.282
   Stream size : 1.09 GiB (75%)
   Writing library : x264 core 112 r1867 22bfd31
 
 Audio #1
   ID : 2
   Format : AC-3
   Format/Info : Audio Coding 3
   Mode extension : CM (complete main)
   Codec ID : A_AC3
   Duration : 1h 47mn
   Bit rate mode : Constant
   Bit rate : 448 Kbps
   Channel(s) : 6 channels
   Channel positions : Front: L C R, Side: L R, LFE
   Sampling rate : 48.0 KHz
   Bit depth : 16 bits
   Stream size : 346 MiB (23%)

Screenshots












YouTube


Uploader's Comments:
Sweet and delightful film, enjoylaugh.gif
IMDB
IMDB Extra
More.Info
Category Korean Movie
Rating
Size 1.48 GB
Show/Hide Files
6 files
AddDate 30/01/2011
Uploader ANONYMOUS
Speed 0 KB/sec
Down 3753 times
peers seeds: 152, leechers: 2 = 154 peers
Who thanked
Report
Reseed


22/04/2014 02.15 am

Thanks for sharing
21/04/2014 10.24 am

Bad couple... Bad ending sleep.gif
17/04/2014 03.22 am

this is awesome laugh.gif
16/04/2014 09.23 am

Hilarious laugh.gif
16/04/2014 08.49 am

nice..
07/08/2011 07.05 pm

Thank you!!!
Really a good movie...
wink.gif
08/06/2011 03.29 pm

english subs?
07/06/2011 10.22 pm

Thank you sharing and for including the Korean subtitles! smile1.gif
02/05/2011 08.44 am

Thx for sharing this grin.gif
23/03/2011 04.55 pm

thanks for thisgrin.gif
21/02/2011 11.48 pm

Very funny movie.  Thank you.....
21/02/2011 03.58 am

THANKSangel.gif
09/02/2011 07.39 am

I particularly appreciate Korean films with Korean subtitles, and this one has .smi (text subtitles) , not only idx/sub subtitles. Thank you very much, as I am learning Korean!thumbsup.gifthumbsup.gif
30/01/2011 03.48 pm

Does these subs work for XYZ release (700 mb release)?
30/01/2011 03.04 pm

Finally with subs  thumbsup.gifthumbsup.gif




ADS