User Info

ADS

Torrent’s details
Name Yagyu Abaretabi eps1-26(Sequel to Yagyu Conspiracy)Error reported episodes 1-2 & 8 use new corrected torrent
  You will need to Register or Login to download!
Info Hash b4fd5ff807db4ada08426122a817d702fe463196
Description Yagyu Abaretabi eps 1-26 (Sequel to Yagyu Conspiracy)+Shin Kage No Gundan 1&2 (New Shadow Warriors 1&2) Sonny Chiba



YAGYU ABARETABI TV Series Directed by: MATSUOKA Akinori
Cast: KATSUNO Hiroshi, CHIBA Shinichi, SANADA Hiroyuki, YAMAMURA So, KATAHIRA Nagisa, FUJIKI Yuu

Yagyu Abaretabi is a samurai television series from the JAC (Japan Action Club) which followed the successful Yagyu Conspiracy series with new and exciting stories.

Unlike the first series, which was basically set in and around the Shogun's Palace in Edo, Yagyu Abaretabi is the tale of members of the Yagyu Clan and their travels all around the nation seeking to fight injustice and corruption.

With outstanding performances by such stalwarts as Sanada Hiroyuki (playing Jubei's half-brother Matahei) and Katsuno Hiroshi as Matajuro, not to mention powerful appearances by Chiba Shinichi (aka Sonny Chiba) himself (as Yagyu Jubei, the one-eyed swordsman of legendary prowess), this is a series not to be missed.

There are plenty of surprises along the way, as this highly entertaining series is guaranteed to bring joy to those who watch it.

1981 Color Fullscreen. 26 Episodes
Japanese with hard English subtitles.
episode 7 has soft subs

Name                                     : Yagyu Abaretabi
Format                                   : MPEG-4
Format profile                           : Base Media
Codec ID                                 : isom
File size                                : 698 MiB
Duration                                 : 45mn 59s
Overall bit rate mode                    : Variable
Overall bit rate                         : 2 121 Kbps
Writing application                      : Lavf54.29.104

Video
ID                                       : 1
Format                                   : MPEG-4 Visual
Format profile                           : Simple@L1
Format settings, BVOP                    : No
Format settings, QPel                    : No
Format settings, GMC                     : No warppoints
Format settings, Matrix                  : Default (H.263)
Codec ID                                 : 20
Duration                                 : 45mn 59s
Bit rate mode                            : Variable
Bit rate                                 : 2 048 Kbps
Maximum bit rate                         : 9 500 Kbps
Width                                    : 512 pixels
Height                                   : 384 pixels
Display aspect ratio                     : 4:3
Frame rate mode                          : Variable
Frame rate                               : 30.000 fps
Minimum frame rate                       : 29.970 fps
Maximum frame rate                       : 30.030 fps
Color space                              : YUV
Chroma subsampling                       : 4:2:0
Bit depth                                : 8 bits
Scan type                                : Progressive
Compression mode                         : Lossy
Bits/(Pixel*Frame)                       : 0.347
Stream size                              : 674 MiB (97%)
Writing library                          : Lavc51.40.4

Audio
ID                                       : 2
Format                                   : AAC
Format/Info                              : Advanced Audio Codec
Format profile                           : LC
Codec ID                                 : 40
Duration                                 : 45mn 59s
Bit rate mode                            : Variable
Bit rate                                 : 64.0 Kbps
Maximum bit rate                         : 128 Kbps
Channel(s)                               : 2 channels
Channel positions                        : Front: L R
Sampling rate                            : 44.1 KHz
Compression mode                         : Lossy
Stream size                              : 21.1 MiB (3%)


Shin Kage No Gundan 1&2 (New Shadow Warriors 1&2)



NEW SHADOW WARRIORS 1&2
Directed by: Takeshi Miyasaka
Starring : Sonnyi Chiba, Hassei Takano, Hiroki Matsukata, Taifuu Motomiya, Yoshiyuki Yamaguchi, Noboru Kaneko

In the time of the peaceful Toyotomi Era, Shinotada the master of Kochi Family, a source of revenue for the Tokugawa, was trying to marry his younger sister Princess Fuji to Akinobu Sunekazura, who has connections with the reval Toyotomi, in order to bring peace. However, he became ill at the close at hand to complete the marriage.

One of sixteen great warriors of Tokugawa, Hanzo Hattori entrusted his wish and the gathered the remnants of Iga Village, which was destroyed by Nobunaga Oda, and ordered them to guard of Princess Fuji.

The Iga ninja who were hastily collected were unsure about the success of such this serious duty. Meanwhile, a shadow which wants to prevent the marriage has begun to move. The Council of Elders of the Sunekazura, Atsuyuki Yabuta hired the Fuma Ninja led by Kotaro Fuma joined with Koga Ninja led by Sasuke Sarutobi, who is serving Hideyoshi Toyotomi, to assassinate of Princess Fuji!

The extremely popular TV series from 1980-1985, Kage no Gundan has finally retuned. Shinichi "Sonny" Chiba plays the leading role of Hanzo Hattori again with his old enemy, Sasuke Sarutobi, played by Hiroki Matsukata.

2003 Color widescreen
Japanese Language with English subtitles
Shin Kage No Gundan Directed by: Takeshi Miyasaka
Starring : Sonnyi Chiba, Hassei Takano, Hiroki Matsukata, Taifuu Motomiya, Yoshiyuki Yamaguchi, Noboru Kaneko

Japanese Language with soft English subtitles

Due to a request by a friend to understand the meaning of the Ninjitsu Ku-Ji I have modified the srt subtitles in espisode 1 to include the meaning of the chant in the opening scenes that is not found in the original subtitle (Rin, Pyo, To, Sha, etc) so the srt files have non sequential coding for subtitle 36 if the actual srt file is opened for editing.

Complete name                            : Shin Kage No Gundan 1
Format                                   : MPEG-PS
File size                                : 1.36 GiB
Duration                                 : 1h 22mn
Overall bit rate mode                    : Variable
Overall bit rate                         : 2 343 Kbps

Video
ID                                       : 224 (0xE0)
Format                                   : MPEG Video
Format version                           : Version 2
Format profile                           : Main@Main
Format settings, BVOP                    : No
Format settings, Matrix                  : Default
Format settings, GOP                     : N=18
Duration                                 : 1h 22mn
Bit rate mode                            : Variable
Bit rate                                 : 2 168 Kbps
Maximum bit rate                         : 9 800 Kbps
Width                                    : 720 pixels
Height                                   : 480 pixels
Display aspect ratio                     : 4:3
Frame rate                               : 29.970 fps
Standard                                 : NTSC
Color space                              : YUV
Chroma subsampling                       : 4:2:0
Bit depth                                : 8 bits
Scan type                                : Progressive
Compression mode                         : Lossy
Bits/(Pixel*Frame)                       : 0.209
Time code of first frame                 : 00:00:00:00
Time code source                         : Group of pictures header
Stream size                              : 1.26 GiB (93%)

Audio
ID                                       : 189 (0xBD)-128 (0x80)
Format                                   : AC-3
Format/Info                              : Audio Coding 3
Mode extension                           : CM (complete main)
Format settings, Endianness              : Big
Muxing mode                              : DVD-Video
Duration                                 : 1h 22mn
Bit rate mode                            : Constant
Bit rate                                 : 128 Kbps
Channel(s)                               : 2 channels
Channel positions                        : Front: L R
Sampling rate                            : 48.0 KHz
Bit depth                                : 16 bits
Compression mode                         : Lossy
Stream size                              : 75.9 MiB (5%)




IMDB No IMDB ID been added..
Category Japanese TV
Rating N/A
Size 20.36 GB
Show/Hide Files
32 files
AddDate 06/04/2013
Uploader ANONYMOUS
Speed 0 KB/sec
Down 57 times
peers seeds: 0, leechers: 0 = 0 peers
Who thanked
Report
Reseed


25/04/2013 11.32 am

I guess I can't add links to the re-encoded episodes 1-2 & 8 of Yagyu Abaretabi if you got corrupted files but they are now posted. You don't have to download the entire torrent just delete episodes 1-2 & 8 and the old torrent file. Get the new torrent file and it will check your existing video files and reload just episodes 1-2 and 8
25/04/2013 11.17 am

Reported error on episodes ep01 Tengus Lullaby.mp4, ep02 The village bodyguard.mp4, and ep08 Jubei meets his double.mp4 Please delete old torrent file and use updated torrent file
http://www.asiatorrents.me/index.ph
24/04/2013 03.43 pm

Don't know why I can play it and others can't. 2 people with the same problem is good enough for me so I am going to run these episodes through a video converter and reload them into a new container that is verified to run with most players. Anyone else with the same problems?
23/04/2013 10.43 pm

I've downloaded it last week and found out that this three episodes 01, 02, 08 are not working. Downloading again didn't help. Maybe some specific codecs are needed
22/04/2013 10.06 am

I check the files you mentioned and have been able to play them fine without problems using VLC. Anyone else with problems? Anyone from week #1 downloads, week #2 or this weeks downloads?
22/04/2013 07.12 am

I deleted the corrapted files and downloaded them again and all 3 of them (01, 02, 08) are still corrapted.

D.
21/04/2013 11.27 pm

I will recheck my files for errors but this has been downloading for almost 3 weeks and you are the 1st one with corrupted files. This is a gold torrent so it is free. The 1st thing to do is to deleted just the corrupted files and re-download the torrent. it should just download the deleted files.
21/04/2013 04.10 pm

Hello,

Tnx. for a great upload but episodes 01, 02 and 08 are corrapted. cry.gif
Can you please check it out and if possible replace the files and let me know?

Best Regards
Doridan
06/04/2013 11.36 am

I forgot to mention the superb "Legendary Swordfights of Yagyu Jubei (2005)" series... only season one has been subbed... I have a huge list of "WANTED" jidaigeki stuff... Maybe we could help each other. As for movies, there are countless unsubbed ones, trying to get my hands on Hattori Hanzo (1979) and Araki Mataemon - Vendetta Of Samurai for example.

Cheers !
06/04/2013 11.27 am

Very nice of you rocketjsquireel.

Im sure we all preffer rough/non-pro subs than no subs at all, would be much apreciated, so upload'em here when you're done please.

Can you do me a favor and list the films/dramas you are working on that you spoke of ?

Unfortunately there are alot of stuff that never got subbed, like many seasons of Ooka Echizen, Abarenbo Shogun, Shinsengumi Peace Maker (live action series), Hakuoki samurai vendeta tv series, Sorekara no Musashi 1981  etc etc...

As of now Im stuck for months trying to download Kirisute Gomen and Momotaro Zamurai dramas lol.

Thanks alot buddy !
06/04/2013 08.15 am

If possible, download subbtitry separately. I would like to try to translate these good films into Russian .... thanks in advance
06/04/2013 03.18 am

Why yes I do have the other 4 episodes of Shin Kage No Gundan. But the only thing is that other 4 episodes were never subtitled. So I am doing that in my spare time and it is a slow process. My Japanese is good enough for me to tell what is going on but not good enough for a precise sentence that a subtitle requires so I need the help of translators. The translators provide a literal translation and then I edit and time it using the correct sentence structure. I used to work with a few people making subs but they have dropped off or maybe it was too time consuming for them. I am working on several hard to find jidaigeki projects from the 70's and 80's. If people like the Yagyu Conspiracy and Kage No Gundan type shows they will love these shows.
06/04/2013 02.05 am

Thanks alot fella !

Do you by chance have access to the other 4 shin kage no kundam episodes ?

If im not wrong there are 6 eps total and Ive been looking for them everywhere...

Tnx again.




ADS