User Info

ADS

Torrent’s details
Name Queen of Reversals [2010 2011] KO Complete eng subs
  You will need to Register or Login to download!
Info Hash b40b30bc4cd8a45725d21449f709c588f8ffc514
Description




Title: 역전의 여왕 / Yeokjeonui Yeowang
Also known as: Queen of Reversals
Previously known as: 눈물의 여왕 / Queen of Tears
Genre: Romance, comedy
Episodes: 31
Broadcast Network: MBC
Broadcast period: 2010-Oct-18 to 2011-Feb-01
Air time: Monday & Tuesday 21:55

Brief Info
Hwang Tae Hee is the daughter of a chaebol and team leader at her workplace. She is married to Bong Joon Soo who works at the same company. When Bong Joon Soo's ex-girlfriend, Baek Yeo Jin, who happens to be Hwang Tae Hee's rival as well, begins to work in her team, troubles start to surface. Tae Hee has to juggle her challenges in love with those in work, helping shape her boss and department director, Goo Yong Shik, from an insensitive and uninterested second generation chaebol to a true leader. Tae Hee's seeming success in love, however, presents her with another problem as she begins to realize that marriage involves just as many obstacles to overcome.

General
Complete name                    : Queen.of.Reversals.E01.KOR.101018.HDTV.XviD-HANrel.avi
Format                           : AVI
Format/Info                      : Audio Video Interleave
File size                        : 700 MiB
Duration                         : 1h 4mn
Overall bit rate                 : 1 516 Kbps
Writing application              : VirtualDubMod 1.5.10.2 (build 2540/release)
Writing library                  : VirtualDubMod build 2540/release

Video
ID                               : 0
Format                           : MPEG-4 Visual
Format profile                   : Advanced Simple@L5
Format settings, BVOP            : 2
Format settings, QPel            : No
Format settings, GMC             : No warppoints
Format settings, Matrix          : Default (H.263)
Muxing mode                      : Packed bitstream
Codec ID                         : XVID
Codec ID/Hint                    : XviD
Duration                         : 1h 4mn
Bit rate                         : 1 312 Kbps
Width                            : 624 pixels
Height                           : 352 pixels
Display aspect ratio             : 16:9
Frame rate                       : 29.970 fps
Color space                      : YUV
Chroma subsampling               : 4:2:0
Bit depth                        : 8 bits
Scan type                        : Progressive
Compression mode                 : Lossy
Bits/(Pixel*Frame)               : 0.199
Stream size                      : 606 MiB (87%)
Writing library                  : XviD 1.1.2 (UTC 2006-11-01)

Audio
ID                               : 1
Format                           : AC-3
Format/Info                      : Audio Coding 3
Mode extension                   : CM (complete main)
Codec ID                         : 2000
Duration                         : 1h 4mn
Bit rate mode                    : Constant
Bit rate                         : 192 Kbps
Channel(s)                       : 2 channels
Channel positions                : Front: L R
Sampling rate                    : 48.0 KHz
Bit depth                        : 16 bits
Compression mode                 : Lossy
Stream size                      : 88.7 MiB (13%)
Alignment                        : Aligned on interleaves
Interleave, duration             : 33 ms (1.00 video frame)
Interleave, preload duration     : 512 ms

ENGLISH SOFTSUBBED

Cast

Kim Nam Joo as Hwang Tae Hee
Jung Joon Ho as Bong Jun Soo
Chae Jung Ahn as Baek Yeo Jin
Park Shi Hoo as Goo Yong Shik
Ha Yoo Mi as Han Song Yi

Tae Hee's family
Park Jung Soo as Na Young Ja
Kim Yong Gun as Tae Hee's father
Shin Soo Yun (신수연) as So Ra (Tae Hee & Jun Soo's daughter)
Han Yeo Woon as Hwang Yeon Hee
Kim Se Min (김세민) as Yeon Hee's husband

Jun Soo's family
Yoo Ji In as Oh Mi Soon
Han Kyu Hee (한규희) as Jun Soo's father
Lee Joo Na (이주나) as Bong Mi Geum
Lee Sun Young (이선영) as Bong Soon Geum
Oh Na Ra as Bong Hae Geum

Queens Group
Choi Jung Woo as Goo Ho Seung
Kim Hye Jung as Jang Sook Jung
Kim Chang Wan as General Manager Mok Young Chul
Kim Yong Hee as Section Chief Oh Dae Soo
Ahn Sang Tae (안상태) as Kang Dong Won
Kang Rae Yun as So Yoo Kyung
Ga Deuk Hi as Bu Min Ah
Choi Yoon Young as Ki Ppeum
Oh Soo Min as Hyun Joo
Ryu Je Hee (류제희) as Han Song Yi's secretary
Im Ji Kyu as Kang Woo
Son Gun Woo (손건우) as Team Leader Chu Sang Chul
Yoo Tae Woong as Goo Yong Chul
Jung Soo Young as Ji Hwa Ja (cameo)
Kim Seung Woo as security guard (cameo)
Lee Bong Won (이봉원) (cameo)

Production Credits
Producer: Choi Yi Sup, Kim Seung Mo (김승모)
Director: Kim Nam Won, Jung Dae Yoon
Screenwriter: Park Ji Eun

Recognitions
2010 MBC Drama Awards: Grand Prize (Kim Nam Joo)
2010 MBC Drama Awards: Male Top Excellence Award (Jung Joon Ho)
2010 MBC Drama Awards: Male Excellence Award (Park Shi Hoo)
2010 MBC Drama Awards: PD Award (Chae Jung Ahn)
2010 MBC Drama Awards: Golden Acting Award (Ha Yoo Mi)
IMDB No IMDB ID been added..
Category Korean TV
Rating
Size 21.30 GB
Show/Hide Files
62 files
AddDate 19/02/2011
Uploader ANONYMOUS
Speed 0 KB/sec
Down 565 times
peers seeds: 1, leechers: 1 = 2 peers
Who thanked
Report
Reseed


20/03/2011 11.42 pm

Thank you for the upload!!! It’s a great drama!! wink.gifthumbsup.gif
19/02/2011 02.43 pm

thank you




ADS