User Info

ADS

Torrent’s details
Name Virgin Relationship 2010[1+2].KORSUB.Xvid.Mp3
  You will need to Register or Login to download!
Info Hash b363a591342d31fd90df93c31a04a61c40bbaa33
Description Audio Sound: Japanese
Subtitle : Korean Hardcode








Virgin Relationship 1

Japanese title: Virgin na Kankei
English title: Virgin Relationship
Genre: Erotic
Director: Mikio HIROTA
Starring: Saori Hara, Risa KASUMI, Rin SAKURAGI
Released Date : 2010
Running time: 72 min.

Virgin Relationship 2

Japanese title : Virgin na Kankei 2
English title : Virgin Relationship 2
Category : Comedy ,Erotic
Director : Mikio HIROTA
Cast : Saori HARA, Risa KASUMI
Running time: 72 min.
Release Dated : 2010




Virgin Relationship 1

Kimijima is a part-time worker who works for a moving track company. One day his client did not show up to receive her stuff and he ends up waiting for her at her apartment.
Then Kimijima falls in love with his client, Kana(Saori HARA) and they had one night stand relationship. Kimijima decided to get a "real job" and got a work at Sports equipment company. First day he goest to office and his new boss is welcoming him. It was Kana. It is a comedy/erotic story about a man finding a real love with a girl who he happens to work for...

Virgin Relationship 2

Tadashi KIMIJIMA was a regular guy who works for a company. He has been seeing a girl who is his boss at the office. His girlfriend Kana is a very tough boss but she is a sweet girl to him at home. One day, Tadashi made a huge mistake which caused a big trouble to Kana and her team. Since then, their relationship gets sharky and Kana was approached by her boss Kurosaki, who is a senior to her and has more experiences.
Tadashi is trying to get Kana back but it seems to be a bit confused situation...




Virgin Relationship 1

Spoiler:show











Virgin Relationship 2

Spoiler:show













Virgin Relationship 1

Spoiler:show

Code
Complete name                            : Virgin Relationship 2010[1].KORSUB.Xvid.Mp3.avi
Format                                   : AVI
Format/Info                              : Audio Video Interleave
Format profile                           : OpenDML
File size                                : 1.09 GiB
Duration                                 : 1h 10mn
Overall bit rate                         : 2 195 Kbps
Writing application                      : GOM ENCODER (GAviWriter 1.0)

Video
ID                                       : 0
Format                                   : MPEG-4 Visual
Format profile                           : Simple@L1
Format settings, BVOP                    : No
Format settings, QPel                    : No
Format settings, GMC                     : No warppoints
Format settings, Matrix                  : Default (H.263)
Codec ID                                 : XVID
Codec ID/Hint                            : XviD
Duration                                 : 1h 10mn
Bit rate                                 : 1 986 Kbps
Width                                    : 720 pixels
Height                                   : 406 pixels
Display aspect ratio                     : 16:9
Frame rate                               : 29.970 fps
Color space                              : YUV
Chroma subsampling                       : 4:2:0
Bit depth                                : 8 bits
Scan type                                : Progressive
Compression mode                         : Lossy
Bits/(Pixel*Frame)                       : 0.227
Stream size                              : 1 006 MiB (90%)
Writing library                          : Lavc52.10.0

Audio
ID                                       : 1
Format                                   : MPEG Audio
Format version                           : Version 1
Format profile                           : Layer 3
Mode                                     : Joint stereo
Mode extension                           : MS Stereo
Codec ID                                 : 55
Codec ID/Hint                            : MP3
Duration                                 : 1h 10mn
Bit rate mode                            : Constant
Bit rate                                 : 192 Kbps
Channel(s)                               : 2 channels
Sampling rate                            : 44.1 KHz
Compression mode                         : Lossy
Stream size                              : 97.2 MiB (9%)
Alignment                                : Aligned on interleaves
Interleave, duration                     : 26 ms (0.78 video frame)
Writing library                          : LAME3.97 (beta)



Virgin Relationship 2

Spoiler:show

Code
Complete name                            : Virgin Relationship 2010[2].KORSUB.Xvid.Mp3.avi
Format                                   : AVI
Format/Info                              : Audio Video Interleave
Format profile                           : OpenDML
File size                                : 1.09 GiB
Duration                                 : 1h 10mn
Overall bit rate                         : 2 208 Kbps
Writing application                      : GOM ENCODER (GAviWriter 1.0)

Video
ID                                       : 0
Format                                   : MPEG-4 Visual
Format profile                           : Simple@L1
Format settings, BVOP                    : No
Format settings, QPel                    : No
Format settings, GMC                     : No warppoints
Format settings, Matrix                  : Default (H.263)
Codec ID                                 : XVID
Codec ID/Hint                            : XviD
Duration                                 : 1h 10mn
Bit rate                                 : 1 999 Kbps
Width                                    : 720 pixels
Height                                   : 406 pixels
Display aspect ratio                     : 16:9
Frame rate                               : 29.970 fps
Color space                              : YUV
Chroma subsampling                       : 4:2:0
Bit depth                                : 8 bits
Scan type                                : Progressive
Compression mode                         : Lossy
Bits/(Pixel*Frame)                       : 0.228
Stream size                              : 1 007 MiB (91%)
Writing library                          : Lavc52.10.0

Audio
ID                                       : 1
Format                                   : MPEG Audio
Format version                           : Version 1
Format profile                           : Layer 3
Mode                                     : Joint stereo
Mode extension                           : MS Stereo
Codec ID                                 : 55
Codec ID/Hint                            : MP3
Duration                                 : 1h 10mn
Bit rate mode                            : Constant
Bit rate                                 : 192 Kbps
Channel(s)                               : 2 channels
Sampling rate                            : 44.1 KHz
Compression mode                         : Lossy
Stream size                              : 96.7 MiB (9%)
Alignment                                : Aligned on interleaves
Interleave, duration                     : 26 ms (0.78 video frame)
Writing library                          : LAME3.97 (beta)

IMDB No IMDB ID been added..
Category Japan - Erotica/+18
Rating
Size 2.17 GB
Show/Hide Files
2 files
AddDate 27/07/2013
Uploader ANONYMOUS
Speed 0 KB/sec
Down 2423 times
peers seeds: 8, leechers: 0 = 8 peers
Who thanked
Report
Reseed


16/03/2014 06.31 pm

any news on when subs are coming ??????????
06/12/2013 06.52 pm

when can we look for subs its been like a year since this has been out
28/11/2013 09.32 am

thankxxxxxxxxxxxxxxxxxxxxxxxxxxxxxxxxxxxxxxxxxxxxxxxxxxxxxxxxxxxxxxxxxxsmile1.gifsmile1.gifsmile1.gifsmile1.gifsmile1.gifsmile1.gifsmile1.gifsmile1.gifsmile1.gifsmile1.gifsmile1.gifsmile1.gifsmile1.gifsmile1.gifsmile1.gif grin.gif
11/11/2013 07.25 am

1st movie is more comedy that Erotica (thank you good upload )
23/08/2013 04.55 pm

based on famous manga Virgin Na Kankei by Kobayashi Takumi...
06/08/2013 06.19 pm

can i get english subtitle pls
06/08/2013 10.22 am

thanks
28/07/2013 03.40 pm

Thanks so much.




ADS