User Info

ADS

Torrent’s details
Name Sex scandal ( pinoy CAT III )
  You will need to Register or Login to download!
Info Hash b2e6e8e38bb86e44692aa6f301d9449776d5fe10
Description Warning : This Movie contains nudity and sexual scenes.



Director   : Francis Posadas
Country   : Philipines
Genre      : Adult, CAT III, Suspense
Language : Tagalog
Runtime   : 1 hr 32 mins
Cast        : Isabella gomez,Danna garcel,Anne borromeo
Subtitles   : No English Subs

DESCRIPTION:
Because of a dysfunctional upbringing, Jake inherits his father's perversion for sex. He grows up to become a pornographer, videotaping his sex encounters and replicating these to be sold at "bangketas" and, on the sly, in video rental shops. The women in the videos ---Jake's current girlfriend Andrea, Prances who is married to Joseph, and Donna, a beauty queen--- get their reputations tainted when the videos are exposed. At first, the women lose their self-esteem and suffer depressi on. Thanks to Marra who is a feminist, they find the strength to come out and file charges against Jake. But not before hurdling insurmountable shame and extremely debilitating prejudice. This story shows the ills effects of pornography and that, indeed, there is life after a scandal



Format                           : DivX
Format/Info                      : Hack of AVI
File size                        : 827 MiB
Duration                         : 1h 32mn
Overall bit rate                 : 1 247 Kbps

Video
ID                               : 0
Format                           : MPEG-4 Visual
Format settings, BVOP            : Yes
Format settings, QPel            : No
Format settings, GMC             : No warppoints
Format settings, Matrix          : Default (H.263)
Muxing mode                      : Packed bitstream
Codec ID                         : DX50
Codec ID/Hint                    : DivX 5
Duration                         : 1h 32mn
Bit rate                         : 1 108 Kbps
Width                            : 720 pixels
Height                           : 480 pixels
Display aspect ratio             : 3:2
Frame rate                       : 29.970 fps
Standard                         : NTSC
Color space                      : YUV
Chroma subsampling               : 4:2:0
Bit depth                        : 8 bits
Scan type                        : Progressive
Bits/(Pixel*Frame)               : 0.107
Stream size                      : 735 MiB (89%)
Title                            : Video
Writing library                  : DivX 6.2.5 (UTC 2006-06-16)

Audio
ID                               : 1
Format                           : MPEG Audio
Format version                   : Version 1
Format profile                   : Layer 3
Codec ID                         : 55
Codec ID/Hint                    : MP3
Duration                         : 1h 32mn
Bit rate mode                    : Constant
Bit rate                         : 128 Kbps
Channel(s)                       : 2 channels
Sampling rate                    : 48.0 KHz
Stream size                      : 84.9 MiB (10%)
Alignment                        : Split accross interleaves
Interleave, duration             : 33 ms (1.00 video frame)
Interleave, preload duration     : 50 ms
IMDB
IMDB Extra
More.Info
Category Philippines - Erotic/+18
Rating
Size 827.20 MB
Show/Hide Files
1 file
AddDate 17/06/2010
Uploader ANONYMOUS
Speed 0 KB/sec
Down 2369 times
peers seeds: 5, leechers: 0 = 5 peers
Who thanked
Report
Reseed


25/08/2012 05.09 am

thanks yougrin.gif
22/06/2010 02.37 am

English sub please smile1.gif
18/06/2010 08.45 pm

I like this




ADS