User Info

ADS

Torrent’s details
Name Drunken to Love You Ep 18
  You will need to Register or Login to download!
Info Hash b1c48a256e3bd5cf23ca5214243e5bf9fd2e15ca
Description


Title: 醉後決定愛上你 / Zui Hou Jue Ding Ai Shang Ni
English title: Love You
Also known as: Drunken to Love You
Genre: Romance, comedy
Episodes: TBA
Broadcast network: TTV
Broadcast period: 2011-Aug-14
Air time: Sundays 22:00 - 23:30
Opening theme song: Bu An Pei Li Chu Pei (不按牌理出牌) by Magic Power 魔幻力量
Ending theme song: Hao De Shi Qing (好的事情) by Yan Jue 嚴爵
Subtitle:  Hard coded (Non-English)

General
Format                           : RealMedia
File size                        : 410 MiB
Duration                         : 1h 18mn
Overall bit rate                 : 708 Kbps

Video
ID                               : 1
Format                           : RealVideo 4
Codec ID                         : RV40
Codec ID/Info                    : Based on AVC (H.264), Real Player 9
Duration                         : 1h 18mn
Bit rate                         : 644 Kbps
Width                            : 720 pixels
Height                           : 540 pixels
Display aspect ratio             : 4:3
Frame rate                       : 29.970 fps
Bits/(Pixel*Frame)               : 0.055
Stream size                      : 360 MiB (88%)

Audio
ID                               : 0
Format                           : Cooker
Codec ID                         : cook
Codec ID/Info                    : Based on G.722.1, Real Player 6
Duration                         : 1h 18mn
Bit rate                         : 64.1 Kbps
Channel(s)                       : 2 channels
Sampling rate                    : 44.1 KHz
Bit depth                        : 16 bits
Stream size                      : 35.9 MiB (9%)

Synopsis

Two strangers, both proposed marriage to their respective girl/boyfriend, were rejected on the same day. They decided that the best way to deal with the rejection was to get drunk, real drunk. During the 24 hours of their crazy drunkenness, these two stranger became fast friends and got married... to each other. When they finally sobered up, they embarked on a mission to undo every crazy thing they did while they were drunk and prayed that their girl/boyfriend wouldn't find out. However, it turns out that Jie Xiu's girlfriend, Ai Wei, doesn't want a scandal affecting her movie so she asks him to stay married to Xiao Ru for three months.


Cast

Rainie Yang as Lin Xiao Ru 林曉如
Joseph Chang as Song Jie Xiu 宋杰修
Tiffany Xu as Tang Ai Wei 唐艾薇
Huang Hong Sheng as Di Shuo Huai 耿爍懷
Tom Price (白梓軒) as Xiang Ting Wei 向霆威
Zhong Xin Ling as Cai meng Jun 蔡孟均
Kingone Wang as Ren Yi Xiang 任以翔
Renzo Liu as Li Da Fu 李達夫
Di Zhi Jie as Tony
Bu Xue Liang as Paparazzi Jack
Deng Jiu Yun (鄧九雲) as Peggy
Yan Jia Le as Director Zhou 周導
Luo Bei An as Long Ge 龍哥
Wang Juan as Cai Mei Ling 蔡美玲
Song Xin Ni as Shen Hui Qin 沈慧欽
Xie Qi Wen (謝其文) as landlord
Na Wei Xun as doctor
Albee Huang as Xiao Xun
Lin Mei Xiu as Janitor

IMDB No IMDB ID been added..
Category Taiwanese TV
Rating N/A
Size 410.00 MB
Show/Hide Files
1 file
AddDate 14/08/2011
Uploader ANONYMOUS
Speed 0 KB/sec
Down 186 times
peers seeds: 0, leechers: 0 = 0 peers
Who thanked
Report
Reseed


03/01/2012 04.38 am

no english sub?




ADS