User Info

ADS

Torrent’s details
Name Shaolin Iron Finger (1977 English Dub)
  You will need to Register or Login to download!
Info Hash b15629dd761f03a72859c1634e806a77fa8782c1
Description



Shaolin Iron Finger (1977 English Dub)
AKA: Renegade Master
    Iron Head, Iron Finger, Iron Cloth

Country: Taiwan
Genre: Martial Arts
Language: English Dub
Subtitle: None  

Director   Wong Hung-Cheung
Action         Director
       Hsieh Hsing  
Producer   Jimmy Shaw Feng


Cast Carter Wong Ka-Tat
Kam Kong  
James Tin Jun
Ricky Cheng Tien-Chi
Woo Gam
Wai Wang
Yam Ho
Man Chung-San
Yim Chung
Chin Lung  
Au Lap-Bo ... street vendor
Tsang Ming-Cheong












PLOT
Martial arts superstar Carter Wong portrays a revolutionary who is an expert in the Iron Finger style of kung fu. When his mother is kidnapped, he is forced by his enemy James Tien to destroy a group of subversive warlords, including renegade monk Kam Kong and five element venom man Ricky Cheng. Non-stop, no-holds-barred fight action make this a must for any fan of the martial arts..
A Shaolin Iron Finger expert (Carter Wong) is also a revolutionary leader. Government officials headed by James Tien are after a list of names and after many betrayals and strategic manuevers, Tien eventually holds Carter Wong's mother hostage in order to have Wong do his bidding and kills some revolutionaries. But Carter Wong won't be manipulated, and lots of fights are the result.


TECHNICAL INFO
General
Complete name                    : SHAOLIN IRON FINGER
Format                           : AVI
Format/Info                      : Audio Video Interleave
Format profile                   : OpenDML
File size                        : 1.02 GiB
Duration                         : 1h 28mn
Overall bit rate                 : 1 646 Kbps
Writing application              : DigiArty AV Encoder Core

Video
Format                           : MPEG-4 Visual
Format profile                   : Simple@L1
Format settings, BVOP            : No
Format settings, QPel            : No
Format settings, GMC             : No warppoints
Format settings, Matrix          : Default (H.263)
Codec ID                         : DX50
Codec ID/Hint                    : DivX 5
Duration                         : 1h 28mn
Bit rate                         : 97.4 Kbps
Width                            : 720 pixels
Height                           : 404 pixels
Display aspect ratio             : 16:9
Frame rate                       : 29.970 fps
Color space                      : YUV
Chroma subsampling               : 4:2:0
Bit depth                        : 8 bits
Scan type                        : Progressive
Compression mode                 : Lossy
Bits/(Pixel*Frame)               : 0.011
Stream size                      : 61.9 MiB (6%)
Writing library                  : DigiArty AV Encoder Core

Audio
Format                           : MPEG Audio
Format version                   : Version 1
Format profile                   : Layer 3
Codec ID                         : 55
Codec ID/Hint                    : MP3
Duration                         : 1h 28mn
Bit rate mode                    : Constant
Bit rate                         : 128 Kbps
Channel(s)                       : 2 channels
Sampling rate                    : 48.0 KHz
Compression mode                 : Lossy
Stream size                      : 1.12 MiB (0%)
Alignment                        : Aligned on interleaves
Interleave, duration             : 114 ms (3.40 video frames)


LINKS
http://www.imdb.com/title/tt1456912/
http://hkmdb.com/db/movies/view.mhtml?id=9306&display_set=eng

IMDB
IMDB Extra
More.Info
Category Taiwanese Movie
Rating N/A
Size 1.02 GB
Show/Hide Files
1 file
AddDate 12/09/2011
Uploader ANONYMOUS
Speed 0 KB/sec
Down 172 times
peers seeds: 0, leechers: 0 = 0 peers
Who thanked
Report
Reseed


No comments...




ADS