User Info

ADS

Torrent’s details
Name Love.Lesson.2013.720p.HDRip.x264.AC3-LO[No Subs]
  You will need to Register or Login to download!
Info Hash b131606286225e123a99d8b54e75374496ea3fe9
Description Audio Sound : Korean
Subtitle : None






Fancy Walk
화려한 외출 (hwa-ryeo-han oi-chul)
Directed by Ko Kyeong-ah (고경아)
•Drama
100min | Release date in South Korea : 2013/12/05
Also known as "Love Lesson"



An adult rated love lesson between a woman and a boy she runs into. The Korean version of "Private Lessons".

Korea's most popular song writer Hee-soo (Kim Seon-yeong) runs into a nineteen-year-old boy in the elevator. Hee-soo is inspired by a new song watching him shake at her figure. She starts to tell him about women under the excuse that she's teaching him music. They fall for each other but things get complicated when her life teacher, Joon-ho who taught her about life and music comes back...















Code
Complete name                      : Love.Lesson.2013.720p.HDRip.x264.AC3-LO.avi
Format                                   : AVI
Format/Info                              : Audio Video Interleave
Format profile                           : OpenDML
File size                                : 1.15 GiB
Duration                                 : 1h 20mn
Overall bit rate                         : 2 062 Kbps
Writing application                      : PotEncoder

Video
ID                                       : 0
Format                                   : MPEG-4 Visual
Format profile                           : Simple@L1
Format settings, BVOP                    : No
Format settings, QPel                    : No
Format settings, GMC                     : No warppoints
Format settings, Matrix                  : Default (H.263)
Codec ID                                 : XVID
Codec ID/Hint                            : XviD
Duration                                 : 1h 20mn
Bit rate                                 : 1 920 Kbps
Width                                    : 1 280 pixels
Height                                   : 720 pixels
Display aspect ratio                     : 16:9
Frame rate                               : 29.970 fps
Color space                              : YUV
Chroma subsampling                       : 4:2:0
Bit depth                                : 8 bits
Scan type                                : Progressive
Compression mode                         : Lossy
Bits/(Pixel*Frame)                       : 0.070
Stream size                              : 1.07 GiB (93%)
Writing library                          : Lavc52.108.0

Audio
ID                                       : 1
Format                                   : AC-3
Format/Info                              : Audio Coding 3
Mode extension                           : CM (complete main)
Format settings, Endianness              : Big
Codec ID                                 : 2000
Duration                                 : 1h 20mn
Bit rate mode                            : Constant
Bit rate                                 : 128 Kbps
Channel(s)                               : 6 channels
Channel positions                        : Front: L C R, Side: L R, LFE
Sampling rate                            : 44.1 KHz
Bit depth                                : 16 bits
Compression mode                         : Lossy
Stream size                              : 73.4 MiB (6%)
Alignment                                : Aligned on interleaves
Interleave, duration                     : 35 ms (1.04 video frame)




IMDB No IMDB ID been added..
Category Korean - Erotica/+18
Rating
Size 1.15 GB
Show/Hide Files
1 file
AddDate 05/12/2013
Uploader ANONYMOUS
Speed 0 KB/sec
Down 7922 times
peers seeds: 109, leechers: 1 = 110 peers
Who thanked
Report
Reseed


14/07/2014 03.05 pm

thx brother grin.gif
03/06/2014 05.40 pm

Subs are not accurate. It's as if the person writing them was guessing at what was being said and they got most of it wrong.
02/05/2014 12.57 am

Thks for the sub.
01/05/2014 02.45 am

@ Gungfu http://www.asiatorrents.me/index.php?page=torrent-details&id=2f94316c5b9ae875e44d0e4d31f091ff4bbb852a
30/04/2014 02.18 pm

shofan12, if this is not the Director's Cut, can you direct me to it?
30/04/2014 01.57 am

The subs that are posted here are timed for the Director's cut. The original subs that bilado put up on the 11th are timed to this version (HD rip), their over in the DC version of this movie.
29/04/2014 03.06 am

Omg can't believe this was subbed. Thank you!
18/04/2014 12.41 am

thanks for sharing. nice movie
17/04/2014 09.33 pm

tnx
13/04/2014 07.46 pm

Thanks for the upload smile1.gif
11/04/2014 08.29 am

I found indonesian subs.
I tried to translate with a subtitler program called 'subEdit'... but sadly it went not good enough. There are many words still without translation, like: "hersulang".

Any ideas?
25/03/2014 04.22 pm

thanks hope for sub soon
14/02/2014 02.46 am

Here you go:

http://www.hancinema.net/korean_Kim_Seon-young.php
11/02/2014 07.39 am

Does the main female cast have anymore movie like this?
06/02/2014 05.07 am

subtitles pleeeeease!!!!
04/02/2014 02.39 pm

thank you.....
31/01/2014 06.48 am

just watched the entire movie on youtube.. was pretty hott. lol
26/01/2014 02.29 am

anyone willing to sub this smile1.gif thanks in advance
23/01/2014 07.50 am

english sub please
10/01/2014 07.55 am

Eng Sub Please!!!grin.gif
06/01/2014 02.58 am

thank you!!!
04/01/2014 06.20 pm

Would really appreciate engsub.
01/01/2014 07.57 am

Thanks For All!
24/12/2013 06.02 pm

movie is nice, but too bad doesn't have english sub.
24/12/2013 04.57 pm

Where can I find eng sub for this movie?
24/12/2013 08.44 am

is there any english sub
24/12/2013 12.06 am

english sub  plezzzzzzzzz sleep.gif
09/12/2013 03.51 pm

English subs please. Thanks. smile1.gif
09/12/2013 10.16 am

wow babies!!! tongue.gif fun.gif
07/12/2013 03.12 pm

thank you!
But english subs would be greatly appreciated!!!!!!!
06/12/2013 01.42 pm

thank you  grin.gif
06/12/2013 09.50 am

THANK YOU
06/12/2013 07.37 am

thank you
06/12/2013 02.13 am

Seems like a good show to watch! Thanks for the upload smile1.gif




ADS