User Info

ADS

Torrent’s details
Name Jung Yi, Goddess of Fire E01 HDTV XVID KOR
  You will need to Register or Login to download!
Info Hash b0d28974dab23c6b93d2806c1f935b5bf93014ab
Description

Details
Title: 불의 여신 정이 / Bool-ui Yeosin Jungyi
Also known as: Jung Yi, The Goddess of Fire / The Goddess of Fire, Jeongi
Genre: Historical, romance, political, melodrama
Episodes: 32
Broadcast network: MBC
Broadcast period: 2013-Jul-01 to 2013-??
Air time: Monday & Tuesday 22:00
Original Soundtrack: Goddess of Fire OST
Subtitles by MBC will be added later

Synopsis
A Historical drama about Yoo Jung, also known as Jung Yi, the first female potter in the Joseon Dynasty. ‘Yoo Jung’ is based on the real historical figure ‘Baek Pa Sun’, the lady porcelain maker who lived a life of an intense love and artistic spirit.
Yoo Jung is a girl who dreams to be the top porcelain artist of the Joseon Dynasty. She is gifted with the born talent and skill in porcelain making. She develops her dream, builds up her skill, and endeavors to live a life as the best porcelain artist. The drama is set in a porcelain workshop ‘Boon Won’ in Joseon Dynasty. The porcelain produced in Joseon Dynasty is evaluated to have the highest quality of the 16th century in Asia. The porcelain culture is known to be the mixture of science and art.
This drama also depicts the love story of Jung Yi and Kwang Hae. Crown Prince Kwang Hae is a sad prince whose life was like a wild storm. He had to let go of Jung Yi no matter how deep his love. He will go through a lonely struggle because he could not put out a flame in his heart toward a woman he loved.

Cast
Main Cast
Moon Geun Young as Yoo Jung
Jin Ji Hee as young Yoo Jung
Lee Sang Yoon as Crown Prince Kwang Hae
No Young Hak as young Crown Prince Kwang Hae
Kim Bum as Kim Tae Do
Park Gun Tae as young Tae Do
Park Gun Hyung as Lee Yook Do
Oh Seung Yoon as young Yook Do
Seo Hyun Jin as Shim Hwa Ryung
Kim Ji Min (김지민) as young Hwa Ryung
Jun Kwang Ryul as Lee Kang Chun
Royal Palace
Jung Bo Suk as King Sun Jo
Han Go Eun as Lady In Bin of Kim clan
Lee Kwang Soo as Prince Im Hae
Lee In Sung as young Prince Im Hae
Boon Won
Byun Hee Bong as Moon Sa Seung
Lee Jong Won as Yoo Eul Dam
Sung Ji Roo as Shim Jong Soo
Other People
Jang Kwang as Lee Pyung Ik
Jang Hyo Jin as Ma Poong
Song Ok Sook as Son Haeng Soo





Code
Video
ID                                       : 0
Format                                   : MPEG-4 Visual
Format profile                           : Advanced Simple@L5
Format settings, BVOP                    : No
Format settings, QPel                    : No
Format settings, GMC                     : No warppoints
Format settings, Matrix                  : Default (MPEG)
Codec ID                                 : XVID
Codec ID/Hint                            : XviD
Duration                                 : 1h 6mn
Bit rate                                 : 1 391 Kbps
Width                                    : 624 pixels
Height                                   : 352 pixels
Display aspect ratio                     : 16:9
Frame rate                               : 29.970 fps
Color space                              : YUV
Chroma subsampling                       : 4:2:0
Bit depth                                : 8 bits
Scan type                                : Progressive
Compression mode                         : Lossy
Bits/(Pixel*Frame)                       : 0.211
Stream size                              : 660 MiB (87%)
Writing library                          : XviD 1.2.1 (UTC 2008-12-04)

Audio
ID                                       : 1
Format                                   : MPEG Audio
Format version                           : Version 1
Format profile                           : Layer 3
Mode                                     : Joint stereo
Mode extension                           : MS Stereo
Codec ID                                 : 55
Codec ID/Hint                            : MP3
Duration                                 : 1h 6mn
Bit rate mode                            : Constant
Bit rate                                 : 128 Kbps
Channel(s)                               : 2 channels
Sampling rate                            : 48.0 KHz
Compression mode                         : Lossy
Stream size                              : 60.8 MiB (8%)
Alignment                                : Aligned on interleaves
Writing library                          : LAME3.98.2
Language                                 : un

IMDB No IMDB ID been added..
Category Korean TV
Rating
Size 723.32 MB
Show/Hide Files
1 file
AddDate 01/07/2013
Uploader ANONYMOUS
Speed 0 KB/sec
Down 448 times
peers seeds: 2, leechers: 0 = 2 peers
Who thanked
Report
Reseed


02/07/2013 06.17 pm

@ master222:

Are you using the correct client?
02/07/2013 06.24 am

Hello, someone could be so kind and help me with the following problem: for several days to download a torrent, but not activated. I could say why not start the download. I read the rules and disable DHT, and I also made ​​sure he had seeds. So why not start the download?. Thank you.
02/07/2013 06.24 am

Hello, someone could be so kind and help me with the following problem: for several days to download a torrent, but not activated. I could say why not start the download. I read the rules and disable DHT, and I also made ​​sure he had seeds. So why not start the download?. Thank you.
01/07/2013 03.39 pm

bounce.gif wish lee bo would be here with ujae  EEP! console.gif




ADS