User Info

ADS

Torrent’s details
Name vandread OVA 1 + 2 (Taidouhen & Gekitouhen) english subbed
  You will need to Register or Login to download!
Info Hash afff9b887a7f5ad3c2a8b96e39a9607db1b1c43a
Description

my own recommendation is watching Season 1 and 2 first, because i think alot of the OVA's won't make much sense if u didn't watch S1 and S2 since they basically crammed 13 episodes of 23 minutes into 80 mintutes
link to S1 + s2:
http://www.asiatorrents.com/index.php?page=torrent-details&id=de05b45b2fb41514651b6bdfea06202926bef438

note: 1.  the description is almost the same as the torrent: "vandread S1 + S2"  because the ova's are a compilation of S1 and S2 but with some new scenes not shown before and because I couldn't find much information about the ova's.
2. I've also used the same IMDB because there wasn't any of the OVA but since the cast, plot, characters etc are all the same i used the same IMDB as in the other torrent


ova 1 information:
Vandread The First Stage (season one) was immediately followed up by this OVA. This OVA, also known as Vandread Taidouhen Stage (The Movement Stage) was a recap of the first 13 episodes with additional footage. So, Vandread Taidouhen is not really a bridge between Vandread The First Stage and Vandread The Second Stage (season two). It was made to bring new viewers up to date as to what happened during the first season.
ova 2 information:
Vandread Gekitouhen (Vandread Turbulence), similiar to Vandread Taidouhen, is an OVA summary of Vandread the Second Stage plus several extra scenes



Plot

Set in a universe where humans have colonized the galaxy, and in one star system, men and women are completely segregated (on completely different planets: Mejere by the women, Taraak by the men) causing the gender war to be more than just a metaphor.
Male protagonist Hibiki Tokai, a third-class laborer, takes up a bet to steal a high-tech humanoid robot, known as a Vanguard, from a male attack force battleship about to fight the "evil females". Still on board when the battleship takes off, Hibiki is caught in a battle with female pirates that causes all of the ship's crew to evacuate, except for Hibiki, Duelo McFile, and Bart Garsus. Stuck on board and held as prisoners by female pirates, things seem to have hit an all-time low for Hibiki until the retreating males retaliate by firing torpedoes at the ship to prevent it from falling into women's hands. The Paksis Pragma, the mysterious, living core of the battleship, eradicates the missile, forming a wormhole that sends the pirates and warship to a distant part of the galaxy, fusing the battleship with the female pirates' vessel. The fusion results in a quirky ship with very smooth lines, a host of technical problems, and various hidden capabilities that become apparent later on. The Vanguard Hibiki attempted to steal has also been altered along with three of the women's fighters, known as Dreads, allowing the separate ships to combine. The fusion of Hibiki's mecha with one of the fighters is called a Vandread, the eponymous mecha.
In this alternate, futuristic universe, men and women (at least on Taraak and Mejere) consider each other to be completely separate species (Hibiki gains the nickname "Mr. Alien" from Dita Liebely, the female protagonist), and the three men put up with much abuse at the hands of their female captors, but gradually make their presence accepted: Hibiki as a mecha fighter and technician, Duelo as a skilled doctor and engineer, and Bart as the ship's helmsman and navigator.
The story of the first season revolves around the crew's trip back to the system where their respective home worlds are. Along the way, they encounter strange, robotic machines, both enigmatic and rather Borg-like, though they do not communicate at all. After a few sorties with the unknown enemy, the crew manages to take some alien data samples from a desert planet. The data is read out: "Blood platelets, white blood cells, red blood cells..." Their alien enemies kills human beings and harvests their body parts from them. Not only this, but a later encounter with the flagship of the "Harvesters", the name given to the enemy, reveals that the robots were sent out by the people of Earth, the same planet humans originated from, whose colonists would eventually colonize Mejere, Taraak, and countless other planets.
At the start of the second season, they rescue an escape pod from the Harvesters. The pod contains a girl, Misty Cornwell of Pluto, the last planet in the Earth's solar system to be harvested, and a virus which enters the ship's systems. When the correct password is entered, the virus shuts down and the crew is given access to the hidden data that the pod brings, revealing why the Earthlings are harvesting their own species.
Following the initial drive to colonize, pollution has devastated Earth, making any life on the planet near impossible. Huge metal gears now cover the Earth's stratosphere in an attempt to create a living environment for people in massive structures surrounding the planet. Earthlings, alone and dying on the toxic planet, began to question the humanity of the colonists. Eventually, they convinced themselves that only the inhabitants of Earth are human, and all other humans exists solely to ensure their continued existence. Their solution, therefore, was to send out the Harvester fleet of machines created from the same basic material as the Nirvana's core, the Paksis Pragma. The Harvesters raid and dominate colonies to obtain body parts, allowing the Earthlings to replace their own dying bodies, thus becoming immortal through the lives of others.
For the crew, fighting is not just about defeating their enemy and surviving; they need to rush back to their respective home worlds in time to warn their people. But will the leaders of the planets listen to their almost impossible tale?

IMDB:
http://www.imdb.com/title/tt0309226/

usefull link:
ova 1:http://anidb.net/perl-bin/animedb.pl?show=anime&aid=462
ova 2:http://anidb.net/perl-bin/animedb.pl?show=anime&aid=463

cast:
Mari Devon as Gascogne (13 episodes, 2000)[
Hiroyuki Yoshino as Hibiki Tokai (unknown episodes)
Yumi Kakazu as Dita Liebely (unknown episodes)
Julie Maddalena as Dita Liebely (unknown episodes)
Fumiko Orikasa as Meia Gisborn (Japanese Cast) (unknown episodes)
Yu Asakawa as Jura Basil Elden (unknown episodes)
Catherine Battistone as Captain Mango Vivian (unknown episodes)
Beau Billingslea as The Premiere (unknown episodes)
Steve Blum as Duero McFile (unknown episodes)
Bob Bobson as Additional Voices (unknown episodes)
Steve Cassling as Tatanka (Season 2) (unknown episodes)
Marc Cummingham as Additional Voices (unknown episodes)
Dorothy Elias-Fahn as Additional Voices / ... (unknown episodes)
Richard Epcar as Kokoperi (Season 2) (unknown episodes)
Melissa Fahn as Additional Voices (unknown episodes)
Lynn Fischer as Amarone (unknown episodes)
Sandy Fox as Paiway (unknown episodes)
Crispin Freeman as Tenmei (unknown episodes)
Bridget Hoffman as Ezra (unknown episodes)
Steve Kramer as Additional Voices (unknown episodes)
Mela Lee as Rebecca (Season 2) (unknown episodes)
Wendee Lee as Buzem A. Calessa (unknown episodes)
Lee Loopers as Additional Voices (unknown episodes)
Dave Mallow as Pyoro (unknown episodes)
Mona Marshall as Meia's Fama (unknown episodes)
Jake Martin as Additional Voices (unknown episodes)
Michael McConnohie as Hibiki's Grandfather (unknown episodes)
Mary Elizabeth McGlynn as Jura Basil Elden (English dub) (unknown episodes)
Barbara Newhall as Additional Voices (unknown episodes)
Olivia O'Conner as Seiron (unknown episodes)
Tony Oliver as Hibiki Tokai (English dub) (unknown episodes)
Bob Papenbrook as Additional Voices (unknown episodes)
Jamieson Price as Rabat / ... (unknown episodes)
Michelle Ruff as Belvedere Coco, Additional Voices (unknown episodes)
Philece Sampler as Barnette (unknown episodes)
Lia Sargent as Misty Cornwell, Gascogne's Sister: Child (Season 2)(unknown  episodes)
Stephanie Sheh as Shirley (Season 2) (unknown episodes)
Melodee Spevack as Presiding Judge (Season 2) (unknown episodes)
Steve Staley as Leader (unknown episodes)
Jim Taggert as Additional Voices (unknown episodes)
Hideki Tasaka as Duero Mcfile (unknown episodes)
Julie Ann Taylor as Meia (unknown episodes)
Kirk Thornton as Bart, Captain, Utan (unknown episodes)
Amy Tipton as Additional Voices (Season 2) (unknown episodes)
Dave Wittenberg as Tarak Soldier (Season 2) (unknown episodes)
Tom Wyner as Zen: Grand Pa, Ozeki Kyunmel (Season 2) (unknown episodes)
Zan as Liz (Season 2) (unknown episodes)

directed by:
Takeshi Mori

genre:
Action | Animation | Comedy | Drama | Sci-Fi

runtime:
ova 1: +/- 75 mintues
ova 2: +/- 87 minutes

knowns as:
ova 1: Vandread Taidouhen    
ova 2: Vandread Gekitouhen

country:
Japan

language:
Japanese

subtitles:
English (softsubs)

techincal info:
OVA 1:

Algemeen
General
Format                           : Matroska
File size                        : 622 MiB
Duration                         : 1h 14mn
Overall bit rate                 : 1 166 Kbps
Movie name                       : Vandread Taidouhen [Taumaturgos]
Encoded date                     : UTC 2010-09-18 16:00:28
Writing application              : mkvmerge v4.3.0 ('Escape from the Island') built on Sep  5 2010 10:30:51
Writing library                  : libebml v1.0.0 + libmatroska v1.0.0
Cover                            : Yes / Yes / Yes / Yes / Yes / Yes / Yes / Yes / Yes / Yes / Yes / Yes / Yes

Video
ID                               : 1
Format                           : AVC
Format/Info                      : Advanced Video Codec
Format profile                   : High@L3.1
Format settings, CABAC           : Yes
Format settings, ReFrames        : 8 frames
Muxing mode                      : Header stripping
Codec ID                         : V_MPEG4/ISO/AVC
Duration                         : 1h 14mn
Bit rate                         : 951 Kbps
Nominal bit rate                 : 1 000 Kbps
Width                            : 720 pixels
Height                           : 400 pixels
Display aspect ratio             : 16:9
Frame rate                       : 23.976 fps
Color space                      : YUV
Chroma subsampling               : 4:2:0
Bit depth                        : 8 bits
Scan type                        : Progressive
Bits/(Pixel*Frame)               : 0.138
Stream size                      : 507 MiB (82%)
Title                            : Encoded by Taumaturgos [x264]
Writing library                  : x264 core 98 r1649 20cbe10
Encoding settings                : cabac=1 / ref=8 / deblock=1:1:1 / analyse=0x3:0x133 / me=umh / subme=9 / psy=1 / psy_rd=0.40:0.00 / mixed_ref=1 / me_range=16 / chroma_me=1 / trellis=2 / 8x8dct=1 / cqm=0 / deadzone=21,11 / fast_pskip=1 / chroma_qp_offset=-2 / threads=6 / sliced_threads=0 / nr=0 / decimate=1 / interlaced=0 / constrained_intra=0 / bframes=5 / b_pyramid=2 / b_adapt=2 / b_bias=0 / direct=3 / weightb=1 / weightp=2 / keyint=250 / keyint_min=25 / scenecut=40 / intra_refresh=0 / rc_lookahead=60 / rc=2pass / mbtree=1 / bitrate=1000 / ratetol=4.0 / qcomp=0.60 / qpmin=10 / qpmax=51 / qpstep=4 / cplxblur=20.0 / qblur=0.5 / ip_ratio=1.40 / aq=1:0.60
Language                         : Japanese

Audio
ID                               : 2
Format                           : AC-3
Format/Info                      : Audio Coding 3
Mode extension                   : CM (complete main)
Muxing mode                      : Header stripping
Codec ID                         : A_AC3
Duration                         : 1h 14mn
Bit rate mode                    : Constant
Bit rate                         : 192 Kbps
Channel(s)                       : 2 channels
Channel positions                : Front: L R
Sampling rate                    : 48.0 KHz
Bit depth                        : 16 bits
Compression mode                 : Lossy
Delay relative to video          : 960ms
Stream size                      : 102 MiB (16%)
Title                            : Encoded by Taumaturgos [ac3]
Language                         : Japanese

Text #1
ID                               : 3
Format                           : ASS
Codec ID                         : S_TEXT/ASS
Codec ID/Info                    : Advanced Sub Station Alpha
Compression mode                 : Lossless
Title                            : Lightly styled [.ass]
Language                         : English

Text #2
ID                               : 4
Format                           : ASS
Codec ID                         : S_TEXT/ASS
Codec ID/Info                    : Advanced Sub Station Alpha
Compression mode                 : Lossless
Title                            : Fancy styled [.ass]
Language                         : English

Text #3
ID                               : 5
Format                           : UTF-8
Codec ID                         : S_TEXT/UTF8
Codec ID/Info                    : UTF-8 Plain Text
Title                            : No styling [.srt]
Language                         : English

ova 2::
General
Format                           : Matroska
File size                        : 755 MiB
Duration                         : 1h 26mn
Overall bit rate                 : 1 219 Kbps
Movie name                       : Vandread Taidouhen [Taumaturgos]
Encoded date                     : UTC 2010-09-18 16:17:29
Writing application              : mkvmerge v4.3.0 ('Escape from the Island') built on Sep  5 2010 10:30:51
Writing library                  : libebml v1.0.0 + libmatroska v1.0.0
Cover                            : Yes / Yes / Yes / Yes / Yes / Yes / Yes / Yes / Yes / Yes / Yes / Yes / Yes

Video
ID                               : 1
Format                           : AVC
Format/Info                      : Advanced Video Codec
Format profile                   : High@L3.1
Format settings, CABAC           : Yes
Format settings, ReFrames        : 8 frames
Muxing mode                      : Header stripping
Codec ID                         : V_MPEG4/ISO/AVC
Duration                         : 1h 26mn
Bit rate                         : 1 003 Kbps
Width                            : 720 pixels
Height                           : 400 pixels
Display aspect ratio             : 16:9
Frame rate                       : 23.976 fps
Color space                      : YUV
Chroma subsampling               : 4:2:0
Bit depth                        : 8 bits
Scan type                        : Progressive
Bits/(Pixel*Frame)               : 0.145
Stream size                      : 621 MiB (82%)
Title                            : Encoded by Taumaturgos [x264]
Language                         : Japanese

Audio
ID                               : 2
Format                           : AC-3
Format/Info                      : Audio Coding 3
Mode extension                   : CM (complete main)
Muxing mode                      : Header stripping
Codec ID                         : A_AC3
Duration                         : 1h 26mn
Bit rate mode                    : Constant
Bit rate                         : 192 Kbps
Channel(s)                       : 2 channels
Channel positions                : Front: L R
Sampling rate                    : 48.0 KHz
Bit depth                        : 16 bits
Compression mode                 : Lossy
Delay relative to video          : 10ms
Stream size                      : 119 MiB (16%)
Title                            : Encoded by Taumaturgos [ac3]
Language                         : Japanese

Text #1
ID                               : 3
Format                           : ASS
Codec ID                         : S_TEXT/ASS
Codec ID/Info                    : Advanced Sub Station Alpha
Compression mode                 : Lossless
Title                            : Lightly styled [.ass]
Language                         : English

Text #2
ID                               : 4
Format                           : ASS
Codec ID                         : S_TEXT/ASS
Codec ID/Info                    : Advanced Sub Station Alpha
Compression mode                 : Lossless
Title                            : Fancy styled [.ass]
Language                         : English

Text #3
ID                               : 5
Format                           : UTF-8
Codec ID                         : S_TEXT/UTF8
Codec ID/Info                    : UTF-8 Plain Text
Title                            : No styling [.srt]
Language                         : English



screenshots:






IMDB
IMDB Extra
More.Info
Category Anime TV
Rating
Size 1.34 GB
Show/Hide Files
3 files
AddDate 19/05/2011
Uploader ANONYMOUS
Speed 0 KB/sec
Down 91 times
peers seeds: 0, leechers: 0 = 0 peers
Who thanked
Report
Reseed


27/12/2012 07.24 pm

Seed please, I want to try out this anime. . . Thank you!
24/05/2011 11.32 am

I've watched the series years ago, recommended anime.




ADS