User Info

ADS

Torrent’s details
Name Swordsman 2013 540p EP 1-10 [No Eng Sub]
  You will need to Register or Login to download!
Info Hash aeb78c0b92c351174200acf634d548468b65262a
Description


   Title: 笑傲江湖 / Xiao Ao Jiang Hu
   English title: Swordsman
   Also known as: State of Divinity / The Smiling, Proud Wanderer
   Genre: Wuxia
   Episodes: TBA
   Broadcast network: Hunan TV
   Broadcast period: 2013-Feb-06
   Related TV series: See Xiao Ao Jiang Hu

Synopsis:
Xiao Ao Jiang Hu is a wuxia novel by Jin Yong. The story is about friendship and love, deception and betrayal, ambition and lust for power. In the middle of it all is, Ling Hu Chong, an orphan who is the senior student of Yue Buqun, leader of Huashan Sect, and the protagonist of the story. The story deals with his journey and development as a swordsman and his witness to the various intrigues which take place in the martial world of the story.

Cast:
Huashan Sect Qi Branch:
   Wallace Huo as Linghu Chong
   Howie Huang as Yue Bu Qun
   Yang Ming Na as Ning Zhong Ze
   Yang Rong as Yue Ling Shan
   Chen Xiao as Lin Ping Zhi
   Zhang Zhuo Wen as Lu Da You
   Cheng Cheng as Lao De Nuo

Huashan Sect Sword Branch:
   Bryan Leung as Feng Qing Yang

Songshan Sect:
   Hu Dong as Zuo Leng Chan

North Hengshan Sect:
   He Jia Yi as Ding Yi
   Deng Sha as Yi Lin

South Hengshan Sect:
   Zong Feng Yan as Liu Zheng Feng

Sun Moon Holy Sect:
   Yuan Shan Shan as Ren Ying Ying
       Jiang Yi Yi as young Ren Ying Ying
   Hei Zi as Ren Wo Xing
   Chen Qiao En as Dongfang Bu Bai
   Zheng Guo Lin as Qu Yang
   Zhang Xue Ying as Qu Fei Yang
   Ren Quan as Dan Qing Sheng

Fu Wei Escort Agency:
   Kou Zhen Hai as Lin Zhen Nan
   Wang Lin as Madam Wang

Qing Cheng Sect:
   Marco Li as Yu Cang Hai

Others:
   Han Dong as Tian Bo Guang
   Lv Jia Rong as Lan Feng Huang
   Tian Yang as Ji Wu Shi
   Dicky Cheung as Hei Bai Zi
   Guo Dong Dong as Gu Tong
   Wang Shuang as Bai Ying
   Wang Ren Jun as Ping Yi Zhi
   He Xin as Luo Ren Jie




Code
General
Format                                   : Matroska
Format version                           : Version 2
File size                                : 350 MiB
Duration                                 : 18mn 54s
Overall bit rate                         : 2 592 Kbps
Encoded date                             : UTC 2013-02-07 11:09:37
Writing application                      : mkvmerge v5.8.0 ('No Sleep / Pillow') built on Sep  2 2012 15:37:04
Writing library                          : libebml v1.2.3 + libmatroska v1.3.0

Video
ID                                       : 1
Format                                   : AVC
Format/Info                              : Advanced Video Codec
Format profile                           : High@L3.1
Format settings, CABAC                   : Yes
Format settings, ReFrames                : 4 frames
Codec ID                                 : V_MPEG4/ISO/AVC
Duration                                 : 18mn 54s
Bit rate                                 : 2 463 Kbps
Width                                    : 960 pixels
Height                                   : 540 pixels
Display aspect ratio                     : 16:9
Frame rate mode                          : Constant
Frame rate                               : 25.000 fps
Color space                              : YUV
Chroma subsampling                       : 4:2:0
Bit depth                                : 8 bits
Scan type                                : Progressive
Bits/(Pixel*Frame)                       : 0.190
Stream size                              : 326 MiB (93%)
Writing library                          : x264 core 129 r2230 1cffe9f
Default                                  : Yes
Forced                                   : No

Audio
ID                                       : 2
Format                                   : AC-3
Format/Info                              : Audio Coding 3
Mode extension                           : CM (complete main)
Format settings, Endianness              : Big
Codec ID                                 : A_AC3
Duration                                 : 18mn 54s
Bit rate mode                            : Constant
Bit rate                                 : 128 Kbps
Channel(s)                               : 6 channels
Channel positions                        : Front: L C R, Side: L R, LFE
Sampling rate                            : 48.0 KHz
Bit depth                                : 16 bits
Compression mode                         : Lossy
Stream size                              : 17.3 MiB (5%)
Default                                  : Yes
Forced                                   : No

IMDB No IMDB ID been added..
Category Chinese TV
Rating N/A
Size 3.42 GB
Show/Hide Files
10 files
AddDate 25/02/2013
Uploader ANONYMOUS
Speed 0 KB/sec
Down 217 times
peers seeds: 0, leechers: 1 = 1 peers
Who thanked
Report
Reseed


26/04/2013 06.33 pm

Go to www.viki.com for the english sub. Up to eps 13 subbed.
09/04/2013 07.00 pm

You tube has only subtitle for 1 , 2 and 3 .... where can i get the full English subtitle ?
26/02/2013 03.00 am

check youtube. Theres 2 esp out with sub.
26/02/2013 01.30 am

will there be any eng. subs, i love this series thanks
25/02/2013 09.19 pm

Thanks!smile1.gif




ADS