User Info

ADS

Torrent’s details
Name The Millionaire Chase 1969
  You will need to Register or Login to download!
Info Hash ac84cbde6395ca9f42c0624b30d6b31941e99f7b
Description
Shaw Bros 1969 Extraordinaire


Diao jin gui AKA The Millionaire Chase (1969)




IMDB: http://www.imdb.com/title/tt0445321/
Director: Umetsugu Inoue
Writer: Umetsugu Inoue
Produced by: Runme Shaw
Original Music: Fu-ling Wang
Cinematography: Tadashi Nishimoto
Film Editing: Hsing-lung Chiang
Art Direction: Haruyasu Kurosawa
Costume Design: Pi-hsi Chen
Language: Cantonese, Mandarin with ENG soft subs
Cast

Lily Ho as Li Li
Chin Ping
Betty Ting as Pei
Peter Chen Ho
Chin Feng
Angela Yu Chien
Goo Man Chung
Cheung Pooi Saan
Paul Wei as Ping Ao
Ho Fan



Comment

This is a glossy delightful film that has just the perfect blend of light comedy, silly romance, tuneful music and just a dash of drama. Like most of Umetsugu Inoue Hong Kong films, it is also filled to the brim with bright colors, pop fashion glamour and the charms of some of the Shaw Brother’s loveliest starlets. Unwinding playfully like a kitten with a ball of string, the film briskly moves around Asia and jumps gleefully from one subplot to another. There is never much doubt where it will end up, but it is a lot of fun getting there nonetheless.

As in Umetsugu’s classic “Hong Kong Nocturne”, these actresses come in a brightly wrapped package of three – Lily Ho, Chin Ping and Betty Ting Pei (two of who starred in Nocturne) and they are a great pleasure to watch. They have wonderful casual chemistry together and feel like the old friends they are suppose to be. Lily is the leggy glamour doll who makes men’s heads spin like runaway tops when she walks by, Chin looks to be as small as a breadbox but is a complete and utter sweetie pie and Betty is sort of the not too bright friend who eyes every man like a piggy bank and breaks into hiccups.  Only at the beginning of her career, Betty was of course to gain infamy a few years later after Bruce Lee died in her apartment. These three aren’t enough for Umetsugu though so he also brings in the beautifully salacious Angela Yu Chien who always sports a grin like a rumpled bed sheet.  And finally to round it out Helen Ma plays the spoiled man stealer – but it is always hard for me to see her in any role but the swordswoman in “Deaf Mute Heroine”.

Lily, Chin and Betty are a singing and dancing trio managed by Peter Chen who shows up in just about every Shaw musical it seems. And by now I would be disappointed if he didn’t. He also manages solo singer Angela, but his interest in her goes well beyond her vocal talents and vice-versa. Unfortunately, she is married to a wealthy old codger, which makes it difficult seeing each other on the sly.  So they scheme to take their show on the road to Taiwan, Tokyo and Bangkok where they hope they will have the opportunity to ditch her husband for a little hanky panky time. Peter invites his other act along to act as cover and to hopefully induce the old man to chase after Lily.

The girls don’t initially want to go but soon find reasons to – Lily has a crush on Peter, Chin has just had her heart broken by a guy named “Melon” and Betty needs to get away from her overcrowded living conditions. They all make a pact to find a husband on this trip – preferably a very rich one – and they go after this mission with a glee. Wasting no time, Chin and Betty spot a potential candidate (Wei Ping Ao) on the airplane and after finding out that he owns stores all over Asia they do a celebratory high five squeal in the aisle. He is kind of weasely looking but with that kind of money who cares. Their plan starts falling apart though when they soon bump their heads on true love – Chin with a poor waiter (Chin Feng) and Betty with a gemologist (Chang Pei-shan). Lily finds herself in a tooth and claw battle for Peter’s heart while also gladly accepting gifts on the side from Angela’s husband. Into this already mangled mix are diamond smugglers, sightseeing, a gigantic pie fight, a free for all melee and of course musical numbers and it all adds up to a frothy delight that I found enchanting.

Tech Stuff

Format                           : AVI
Format/Info                      : Audio Video Interleave
File size                        : 1.32 GiB
Duration                         : 1h 50mn
Overall bit rate                 : 1 715 Kbps
Writing application              : VirtualDubMod 1.5.10.2 (build 2540/release)
Writing library                  : VirtualDubMod build 2540/release

Video
ID                               : 0
Format                           : MPEG-4 Visual
Format profile                   : Advanced Simple@L5
Format settings, BVOP            : Yes
Format settings, QPel            : No
Format settings, GMC             : No warppoints
Format settings, Matrix          : Default (MPEG)
Codec ID                         : XVID
Codec ID/Hint                    : XviD
Duration                         : 1h 50mn
Bit rate                         : 1 513 Kbps
Width                            : 624 pixels
Height                           : 256 pixels
Display aspect ratio             : 2.40:1
Frame rate                       : 23.976 fps
Color space                      : YUV
Chroma subsampling               : 4:2:0
Bit depth                        : 8 bits
Scan type                        : Progressive
Compression mode                 : Lossy
Bits/(Pixel*Frame)               : 0.395
Stream size                      : 1.17 GiB (88%)
Writing library                  : XviD 1.2.1 (UTC 2008-12-04)

Audio
ID                               : 1
Format                           : AC-3
Format/Info                      : Audio Coding 3
Mode extension                   : CM (complete main)
Codec ID                         : 2000
Duration                         : 1h 50mn
Bit rate mode                    : Constant
Bit rate                         : 192 Kbps
Channel(s)                       : 2 channels
Channel positions                : Front: L R
Sampling rate                    : 48.0 KHz
Bit depth                        : 16 bits
Compression mode                 : Lossy
Stream size                      : 152 MiB (11%)
Alignment                        : Split accross interleaves
Interleave, duration             : 42 ms (1.00 video frame)
Interleave, preload duration     : 500 ms
IMDB
IMDB Extra
More.Info
Category Hong Kong Movie
Rating N/A
Size 1.33 GB
Show/Hide Files
3 files
AddDate 08/08/2011
Uploader ANONYMOUS
Speed 0 KB/sec
Down 72 times
peers seeds: 0, leechers: 1 = 1 peers
Who thanked
Report
Reseed


19/08/2011 08.51 pm

Thanks.

Title: simplified 钓金龟 , traditional 釣金龜 , shinjitai 釣金亀 .
09/08/2011 12.13 pm

Thank you karwai.
Greetings from flowerpower1946 in Holland.clover.gif




ADS