User Info

ADS

Torrent’s details
Name Viva hotbabes gone wild ( Pinoy CAT III )
  You will need to Register or Login to download!
Info Hash aa879df2a766b3a247a31889b00d69774701a8e7
Description Warning : This movie contains explicit and strong sexual content.Not suitable for viewers under age 18.



Director            : Bob roque
Country            : philipines
Genre              :  Adult, Cat III.
Language          : Tagalog,English
Certification      : R-18
Release Date    : February 2003
Subtitles           : NO ENGLISH SUBS  
Starring:
Katya Santos, Maui Taylor, Gwen Garci, Myles Hernandez, Jennifer Lee, Hazel Cabrera, Sachie Sanders, Carla Samonte, Vanessa Khan, Mara Daniega,and Maricar dela Fuente.

Description

Mo Twister dares the babes to do the most outrageous, most shocking and most wild challenges ever to be set upon them. These unbridled feats will determine who is ultimately the hottest babe in the land



Format                           : DivX
Format/Info                      : Hack of AVI
File size                        : 795 MiB
Duration                         : 1h 10mn
Overall bit rate                 : 1 583 Kbps

Video
ID                               : 0
Format                           : MPEG-4 Visual
Format settings, BVOP            : Yes
Format settings, QPel            : No
Format settings, GMC             : No warppoints
Format settings, Matrix          : Default (H.263)
Muxing mode                      : Packed bitstream
Codec ID                         : DX50
Codec ID/Hint                    : DivX 5
Duration                         : 1h 10mn
Bit rate                         : 1 443 Kbps
Width                            : 720 pixels
Height                           : 480 pixels
Display aspect ratio             : 3:2
Frame rate                       : 29.970 fps
Standard                         : NTSC
Color space                      : YUV
Chroma subsampling               : 4:2:0
Bit depth                        : 8 bits
Scan type                        : Progressive
Bits/(Pixel*Frame)               : 0.139
Stream size                      : 725 MiB (91%)
Title                            : Video
Writing library                  : DivX 6.2.5 (UTC 2006-06-16)

Audio
ID                               : 1
Format                           : MPEG Audio
Format version                   : Version 1
Format profile                   : Layer 3
Codec ID                         : 55
Codec ID/Hint                    : MP3
Duration                         : 1h 10mn
Bit rate mode                    : Constant
Bit rate                         : 128 Kbps
Channel(s)                       : 2 channels
Sampling rate                    : 48.0 KHz
Stream size                      : 64.3 MiB (8%)
Alignment                        : Split accross interleaves
Interleave, duration             : 33 ms (1.00 video frame)
Interleave, preload duration     : 50 ms

Enjoy downloading and continue seeding.Thankz. thumbsup.gif
IMDB No IMDB ID been added..
Category Philippines - Erotic/+18
Rating
Size 795.35 MB
Show/Hide Files
1 file
AddDate 16/06/2010
Uploader ANONYMOUS
Speed 0 KB/sec
Down 3343 times
peers seeds: 12, leechers: 0 = 12 peers
Who thanked
Report
Reseed


25/08/2012 05.07 am

thanks yousmile1.gif
24/06/2012 12.42 am

Thank you
03/01/2011 06.24 am

thank you sir for having this. pls update if you have new videos.cool1.gif
06/11/2010 06.08 am

List of allowed clients : http://forums.avistaz.com/index.php?showtopic=36933
06/11/2010 05.20 am

Bit comet isn't supported by asia torrents, please use bit torrent or microtorrent.....




ADS