User Info

ADS

Torrent’s details
Name Tiger Cage (1988) & Tiger Cage 2 (1990) - Digitally Remastered - Donnie Yen [x264]
  You will need to Register or Login to download!
Info Hash a96d4776d4207ad9ef1ce08178df0002042e3c50
Description


Title: Tiger Cage

Other Titles: 特警屠龍, Dak ging to lung
Year: 1988
Directed by: Yuen Woo Ping
Genre: Action, Crime  
Runtime: 92 min
Country: Hong Kong
Language: Cantonese | Mandarin (Dual Audio Audio)
Subtitles: English | Traditional Chinese | Simplified Chinese (embedded in file, softcoded)
More info at: Imdb & Hkcinemagic
Source: DVD9 Retail, NTSC


Cast:

Jacky Cheung Hok Yau
Carol Cheng Yu Ling
Simon Yam Tat Wah
Donnie Yen Chi Tan
Ng Man Tat
Leung Kar Yan
Irene Wan Pik Ha
Vincent Lyn
Johnny Wang Lung Wei
Stephan Berwick
Michael Woods

Synopsis/Plot:

Something fishy is going on in the anti-Drug Trafficking Unit of the HK Police, and only a few honest cops know that the corruption goes all the way to the top. However, they must prove their case quickly, and by unconventional means, after they are framed for murder and drug-trafficking themselves. Dodging bullets from cops and criminals alike, the race is on to clear their names, protect their loved ones, and bring their corrupt colleagues to justice.  (hkflix.com)












Title: Tiger Cage 2

Other Titles: 洗黑钱, Sai hak chin
Year: 1990
Directed by: Yuen Woo Ping
Genre: Action, Crime, Martial Arts  
Runtime: 95 min
Country: Hong Kong
Language: Cantonese | Mandarin (Dual Audio Audio)
Subtitles: English | Traditional Chinese | Simplified Chinese (embedded in file, softcoded)
More info at: Imdb & Hkcinemagic
Source: DVD9 Retail, NTSC


Cast:

Donnie Yen Chi Tan
Rosamund Kwan Chi Lam
Robin Shou Wan Bo
David Ng Dai Wai
Gary Chau Ging Yeung
John Salvitti
Michael Woods
Lo Lieh
Cynthia Khan Lai Ching
Carol Cheng Yu Ling

Synopsis/Plot:

Donnie Yen Chi-Tan, a hair-trigger cop, goes on the lam with Rosamund Kwan Chi-Lum, a prim lawyer, after they witness a botched robbery attempt. The police think they're the perpetrators, while the real crooks (including Mortal Kombat star Robin Shou) think they actually got the loot. Cameos by Dodo Cheng Yiu-Yeung and Cynthia Khan/Yeung Lai-Ching  (hkflix.com)










Coming soon in high quality:

  • In the Line of Duty I - Royal Warriors (1986) (Cantonese)
  • In the Line of Duty II - Yes Madam/Police Assassins (1985) (Cantonese)
  • Iron Monkey 2 (1996) (Cantonese)
  • Prodigal Son (1981) incl. Extras (Cantonese)
  • Snake and Crane Arts of Shaolin (1978) (Mandarin)
  • The Postman Fights Back (1982) (Cantonese)

    Coming soon from the hard to find section:

  • High Voltage/Asian Cop (1995) (Cantonese)
  • Hunted Hunter/File X Murderer (1997) (Cantonese/Mandarin)
  • No Problem 2 (2002) (Cantonese, Japanese)
  • Setting Sun/Rakuyo (1992) (Japanese)
  • The Champions (1983) (Cantonese)


    Due to my internet connection my upload speed is limited to 100-150 kb/s. So I only seed to 6 leechers at a time. Sorry for the inconvenience. Please be patient!


    Tiger Cage:

    Code

    Format                           : Matroska
    File size                        : 1.11 GiB
    Duration                         : 1h 32mn
    Overall bit rate                 : 1 710 Kbps
    Writing application              : HandBrake 0.9.5
    Writing library                  : libmkv 0.6.4.1

    Video
    ID                               : 1
    Format                           : AVC
    Format/Info                      : Advanced Video Codec
    Format profile                   : Main@L3.1
    Format settings, CABAC           : Yes
    Format settings, ReFrames        : 4 frames
    Codec ID                         : V_MPEG4/ISO/AVC
    Duration                         : 1h 32mn
    Bit rate                         : 1 324 Kbps
    Width                            : 716 pixels
    Height                           : 458 pixels
    Display aspect ratio             : 1.852
    Original display aspect ratio    : 1.853
    Frame rate mode                  : Variable
    Frame rate                       : 59.940 fps
    Color space                      : YUV
    Chroma subsampling               : 4:2:0
    Bit depth                        : 8 bits
    Scan type                        : Progressive
    Bits/(Pixel*Frame)               : 0.067
    Stream size                      : 880 MiB (77%)
    Writing library                  : x264 core 112
    Encoding settings                : cabac=1 / ref=2 / deblock=1:0:0 / analyse=0x1:0x111 / me=hex / subme=6 / psy=1 / psy_rd=1.00:0.00 / mixed_ref=0 / me_range=16 / chroma_me=1 / trellis=0 / 8x8dct=0 / cqm=0 / deadzone=21,11 / fast_pskip=1 / chroma_qp_offset=-2 / threads=6 / sliced_threads=0 / nr=0 / decimate=1 / interlaced=0 / constrained_intra=0 / bframes=2 / b_pyramid=2 / b_adapt=1 / b_bias=0 / direct=1 / weightb=0 / open_gop=0 / weightp=2 / keyint=600 / keyint_min=59 / scenecut=40 / intra_refresh=0 / rc_lookahead=40 / rc=crf / mbtree=1 / crf=18.0 / qcomp=0.60 / qpmin=3 / qpmax=51 / qpstep=4 / ip_ratio=1.40 / aq=1:1.00
    Language                         : English
    Color primaries                  : BT.601-6 525, BT.1358 525, BT.1700 NTSC, SMPTE 170M
    Transfer characteristics         : BT.709-5, BT.1361
    Matrix coefficients              : BT.601-6 525, BT.1358 525, BT.1700 NTSC, SMPTE 170M

    Audio #1
    ID                               : 2
    Format                           : AC-3
    Format/Info                      : Audio Coding 3
    Mode extension                   : CM (complete main)
    Codec ID                         : A_AC3
    Duration                         : 1h 32mn
    Bit rate mode                    : Constant
    Bit rate                         : 192 Kbps
    Channel(s)                       : 2 channels
    Channel positions                : Front: L R
    Sampling rate                    : 48.0 KHz
    Bit depth                        : 16 bits
    Compression mode                 : Lossy
    Stream size                      : 128 MiB (11%)
    Language                         : Chinese

    Audio #2
    ID                               : 3
    Format                           : AC-3
    Format/Info                      : Audio Coding 3
    Mode extension                   : CM (complete main)
    Codec ID                         : A_AC3
    Duration                         : 1h 32mn
    Bit rate mode                    : Constant
    Bit rate                         : 160 Kbps
    Channel(s)                       : 2 channels
    Channel positions                : Front: L R
    Sampling rate                    : 48.0 KHz
    Bit depth                        : 16 bits
    Compression mode                 : Lossy
    Stream size                      : 106 MiB (9%)
    Language                         : Chinese

    Text #1
    ID                               : 4
    Format                           : VobSub
    Codec ID                         : S_VOBSUB
    Codec ID/Info                    : The same subtitle format used on DVDs
    Language                         : English

    Text #2
    ID                               : 5
    Format                           : VobSub
    Codec ID                         : S_VOBSUB
    Codec ID/Info                    : The same subtitle format used on DVDs
    Language                         : Chinese

    Text #3
    ID                               : 6
    Format                           : VobSub
    Codec ID                         : S_VOBSUB
    Codec ID/Info                    : The same subtitle format used on DVDs
    Language                         : Chinese

    Text #4
    ID                               : 7
    Format                           : VobSub
    Codec ID                         : S_VOBSUB
    Codec ID/Info                    : The same subtitle format used on DVDs
    Language                         : Chinese

    Text #5
    ID                               : 8
    Format                           : VobSub
    Codec ID                         : S_VOBSUB
    Codec ID/Info                    : The same subtitle format used on DVDs
    Language                         : Chinese



    Tiger Cage 2


    Code
    Format                           : Matroska
    File size                        : 1.55 GiB
    Duration                         : 1h 35mn
    Overall bit rate                 : 2 319 Kbps
    Writing application              : HandBrake 0.9.5
    Writing library                  : libmkv 0.6.4.1

    Video
    ID                               : 1
    Format                           : AVC
    Format/Info                      : Advanced Video Codec
    Format profile                   : Main@L3.1
    Format settings, CABAC           : Yes
    Format settings, ReFrames        : 4 frames
    Codec ID                         : V_MPEG4/ISO/AVC
    Duration                         : 1h 35mn
    Bit rate                         : 1 921 Kbps
    Width                            : 714 pixels
    Height                           : 458 pixels
    Display aspect ratio             : 16:9
    Original display aspect ratio    : 16:9
    Frame rate mode                  : Variable
    Frame rate                       : 59.940 fps
    Color space                      : YUV
    Chroma subsampling               : 4:2:0
    Bit depth                        : 8 bits
    Scan type                        : Progressive
    Bits/(Pixel*Frame)               : 0.098
    Stream size                      : 1.28 GiB (83%)
    Writing library                  : x264 core 112
    Encoding settings                : cabac=1 / ref=2 / deblock=1:0:0 / analyse=0x1:0x111 / me=hex / subme=6 / psy=1 / psy_rd=1.00:0.00 / mixed_ref=0 / me_range=16 / chroma_me=1 / trellis=0 / 8x8dct=0 / cqm=0 / deadzone=21,11 / fast_pskip=1 / chroma_qp_offset=-2 / threads=6 / sliced_threads=0 / nr=0 / decimate=1 / interlaced=0 / constrained_intra=0 / bframes=2 / b_pyramid=2 / b_adapt=1 / b_bias=0 / direct=1 / weightb=0 / open_gop=0 / weightp=2 / keyint=600 / keyint_min=59 / scenecut=40 / intra_refresh=0 / rc_lookahead=40 / rc=crf / mbtree=1 / crf=18.0 / qcomp=0.60 / qpmin=3 / qpmax=51 / qpstep=4 / ip_ratio=1.40 / aq=1:1.00
    Language                         : English
    Color primaries                  : BT.601-6 525, BT.1358 525, BT.1700 NTSC, SMPTE 170M
    Transfer characteristics         : BT.709-5, BT.1361
    Matrix coefficients              : BT.601-6 525, BT.1358 525, BT.1700 NTSC, SMPTE 170M

    Audio #1
    ID                               : 2
    Format                           : AC-3
    Format/Info                      : Audio Coding 3
    Mode extension                   : CM (complete main)
    Codec ID                         : A_AC3
    Duration                         : 1h 35mn
    Bit rate mode                    : Constant
    Bit rate                         : 192 Kbps
    Channel(s)                       : 2 channels
    Channel positions                : Front: L R
    Sampling rate                    : 48.0 KHz
    Bit depth                        : 16 bits
    Compression mode                 : Lossy
    Stream size                      : 131 MiB (8%)
    Language                         : Chinese

    Audio #2
    ID                               : 3
    Format                           : AC-3
    Format/Info                      : Audio Coding 3
    Mode extension                   : CM (complete main)
    Codec ID                         : A_AC3
    Duration                         : 1h 35mn
    Bit rate mode                    : Constant
    Bit rate                         : 160 Kbps
    Channel(s)                       : 2 channels
    Channel positions                : Front: L R
    Sampling rate                    : 48.0 KHz
    Bit depth                        : 16 bits
    Compression mode                 : Lossy
    Stream size                      : 109 MiB (7%)
    Language                         : Chinese

    Text #1
    ID                               : 4
    Format                           : VobSub
    Codec ID                         : S_VOBSUB
    Codec ID/Info                    : The same subtitle format used on DVDs
    Language                         : English

    Text #2
    ID                               : 5
    Format                           : VobSub
    Codec ID                         : S_VOBSUB
    Codec ID/Info                    : The same subtitle format used on DVDs
    Language                         : Chinese

    Text #3
    ID                               : 6
    Format                           : VobSub
    Codec ID                         : S_VOBSUB
    Codec ID/Info                    : The same subtitle format used on DVDs
    Language                         : Chinese

    Text #4
    ID                               : 7
    Format                           : VobSub
    Codec ID                         : S_VOBSUB
    Codec ID/Info                    : The same subtitle format used on DVDs
    Language                         : Chinese

    Text #5
    ID                               : 8
    Format                           : VobSub
    Codec ID                         : S_VOBSUB
    Codec ID/Info                    : The same subtitle format used on DVDs
    Language                         : Chinese


  • IMDB
    IMDB Extra
    More.Info
    Category Hong Kong Movie
    Rating
    Size 2.66 GB
    Show/Hide Files
    2 files
    AddDate 27/02/2011
    Uploader ANONYMOUS
    Speed 0 KB/sec
    Down 653 times
    peers seeds: 3, leechers: 0 = 3 peers
    Who thanked
    Report
    Reseed


    04/11/2013 10.09 am

    I miss neardark3's uploads. cry.gif Always such good quality.
    28/11/2012 05.29 pm

    If anyone need me to re-seed, PM me smile1.gif
    18/08/2012 06.59 pm

    go donnie yen thanks great moviesgrin.giftongue.gif
    04/08/2012 12.13 am

    Thank you, I haven't tried playing the file back yet but hopefully no problems grin.gif
    26/01/2012 08.02 pm

    Thanks grin.gif
    05/08/2011 09.48 am

    I can't play the subtitles. I've tried differents players but the subtitles did not appear.

    Can someone avaiable the subtitles in SRT or IDX-SUB FORMAT? Thanks
    23/07/2011 11.21 pm

    Thanks so much for the movie Donnie Yen Kicks Ass
    21/07/2011 02.41 pm

    thumbsup.gifthumbsup.gifthumbsup.gifthumbsup.gifthumbsup.gif
    05/03/2011 11.27 am

    Thanks for the upload!
    I downloaded tiger cage 2 mkv, but when I'm converting using mkv2vob, it says: Unsupported Subtitle Format: VOBSUB.

    Does anyone experience this?

    Thanks!
    28/02/2011 06.38 pm

    You continue to upload the best stuff. Thank you very much and keep up the good work!
    28/02/2011 01.59 am

    Simply Awesome.
    iirc, this series goes on to no.5 or 6 (?)

    Thanks.
    28/02/2011 12.01 am

    Thanks, haven't seen this before ! smile1.gif
    27/02/2011 10.33 pm

    Thanks
    27/02/2011 08.59 pm

    AAaaaah, good films! Especially part 2!!! Best fight scene at the end. smile1.gif They were shot with students from Donnie Yen's mother's Kung Fu school here in Boston, MA, I heard. cool2.gif
    27/02/2011 08.15 pm

    Great wanted to see/get them for some time...
    Thanks for the Upload...thumbsup.gifthumbsup.gifthumbsup.gif
    27/02/2011 04.56 pm

    Thank you soooo much. Been wanting to replace my old VHS copies for ages.grin.gifgrin.gifgrin.gifgrin.gif
    27/02/2011 04.52 pm

    Thank youlaugh.gif




    ADS