User Info

ADS

Torrent’s details
Name Unang Tikim ( Pinoy CAT III )
  You will need to Register or Login to download!
Info Hash a955375b2381086d7699346ab313895b7e28bbee
Description WARNING : THIS MOVIE CONTAINS EXPLICIT SEXUAL CONTENT



Title              : Unang Tikim
Directed by    : Cesar S.B. Abella
Writer            : Cesar S.B. Abella (story)
Release Date  : 2006 (Philippines)
Genre           : Drama,Romance,Adult.
Language      : Tagalog
Cast            :  Nika Madrid, Rev reyes, Rizza Rossilini.

DESCRIPTION

Mitos (Nika Madrid) is a typical bar girl whoe sells flesh just to augment a living. Danny Boy (Rev Reyes), a typical school teenager who fell in love with her despite being a prositute.

Everything altered when she let Danny Boy experience his "first time". Both share the course of bodily fascination and enjoy the intensity of lustful obsession...until one day, guilt feelings envelop her conscience. Because of their dissimilar level of soul, she decided to give up everything and went back to the province.

Will genuine hoard their boundless relationship or intense passion be the reason for them to lay back once more in each other's heart?





General
Format                           : DivX
Format/Info                      : Hack of AVI
File size                        : 804 MiB
Duration                         : 1h 19mn
Overall bit rate                 : 1 418 Kbps

Video
ID                               : 0
Format                           : MPEG-4 Visual
Format settings, BVOP            : Yes
Format settings, QPel            : No
Format settings, GMC             : No warppoints
Format settings, Matrix          : Default (H.263)
Muxing mode                      : Packed bitstream
Codec ID                         : DX50
Codec ID/Hint                    : DivX 5
Duration                         : 1h 19mn
Bit rate                         : 1 278 Kbps
Width                            : 720 pixels
Height                           : 480 pixels
Display aspect ratio             : 3:2
Frame rate                       : 29.970 fps
Standard                         : NTSC
Color space                      : YUV
Chroma subsampling               : 4:2:0
Bit depth                        : 8 bits
Scan type                        : Progressive
Bits/(Pixel*Frame)               : 0.123
Stream size                      : 725 MiB (90%)
Title                            : Video
Writing library                  : DivX 6.2.5 (UTC 2006-06-16)

Audio
ID                               : 1
Format                           : MPEG Audio
Format version                   : Version 1
Format profile                   : Layer 3
Codec ID                         : 55
Codec ID/Hint                    : MP3
Duration                         : 1h 19mn
Bit rate mode                    : Constant
Bit rate                         : 128 Kbps
Channel(s)                       : 2 channels
Sampling rate                    : 48.0 KHz
Stream size                      : 72.6 MiB (9%)
Alignment                        : Split accross interleaves
Interleave, duration             : 33 ms (1.00 video frame)
Interleave, preload duration     : 50 ms
Title                            : Audio

ENJOY DOWNLOADING AND SEED BACK PLZ .THANKZthumbsup.gif

IMDB
IMDB Extra
More.Info
Category Philippines - Erotic/+18
Rating
Size 803.97 MB
Show/Hide Files
1 file
AddDate 12/06/2010
Uploader ANONYMOUS
Speed 1.32 KB/sec
Down 2193 times
peers seeds: 3, leechers: 0 = 3 peers
Who thanked
Report
Reseed


08/06/2012 01.11 am

Great upload.  Thanks and also thanks for letting me register.
13/06/2010 04.23 pm

English sub please. I would greatly appreciate. thank you.




ADS