User Info

ADS

Torrent’s details
Name Himitsu No Arashi Chan Episode 9 & 12 - Hana Yori Dango SP
  You will need to Register or Login to download!
Info Hash a8e6a5d7fa7f4f5436c05ac170a3ebfa06e926a4
Description


Details

• Title: ひみつの嵐ちゃん (Himitsu no Arashi Chan)
• Title (English): The Arashi Secret TV Show  
                  Episode 09 - Hana Yori Matsujun Love Love Attack Project SP
                  Episode 12 - Ageha: Everything About Diamantes (Aiba + Nino)
                               Hana Yori Matsujun, Operation Love Love Date
• Genre: Talk Show
• Language: Japanese
• Subtitles: English (thanks to nyanchan & litany_sh)

Synopsis:

Himitsu no Arashi-chan (ひみつの嵐ちゃん! Arashi's Secrets?, English transcription: The Arashi Secret TV Show) is an on-going Japanese variety show on Tokyo Broadcasting System (TBS) starring Arashi and the members of Othello as their co-hosts. The show began on April 10, 2008. It's the group's first show to air during primetime. This torrent consist of 2 episodes of Himitsu no Arashi Chan which were done prior to the released of Hana Yori Dango the Final in 2008. These 2 episodes revolves around how the rest of Arashi group members made Matsumoto Jun to choose among 4 of his biggest fans to have a 1 day date with him as a grand prize which was won later by Oshima Miyuki (A japanese comedian). Episode 09 will show how the selection took place while Episode 12 will show how the actual date went (with Mao Inoue as Makino Tsukushi keeps reappearing to make sure the date won't go well). The date starts with a home made bento lunch made especially by Oshima, followed by a horse riding activity. It continues with bowling match with Matsumoto Jun's kiss as a prize and the ending was hillarious, even though it's supposed to be a sad ending with Oshima's death. It's 2 great episodes of Himitsu no Arashi Chan especially for Hana Yori Dango and Arashi fans!

Pros:

- Hillarious episodes especially how Matsumoto Jun was totally unaware of the plan.
- How the date went with Hana Yori Dango real casts of Makino Tsukushi and her father butting in the scene! tongue.gif
- In episode 12 the talk show begins with a really interesting topic and cool stuff regarding the Diamantes's Princess Keiko cool2.gif

Cons:

- Matsumoto Jun die hard fan could be extremely jealous with the lucky woman laugh.gif

General

Complete name                            : E:TV ShowsJapaneseHimitsu No Arashi Chan Episode 9 & 12 Hana Yori Dango SPHimitsu no Arashi-chan 009 [2008.06.05].avi
Format                                   : AVI
Format/Info                              : Audio Video Interleave
File size                                : 367 MiB
Duration                                 : 47mn 9s
Overall bit rate                         : 1 088 Kbps

Video

ID                                       : 0
Format                                   : MPEG-4 Visual
Format settings, BVOP                    : 1
Format settings, QPel                    : No
Format settings, GMC                     : No warppoints
Format settings, Matrix                  : Default (H.263)
Muxing mode                              : Packed bitstream
Codec ID                                 : DX50
Codec ID/Hint                            : DivX 5
Duration                                 : 47mn 9s
Bit rate                                 : 952 Kbps
Width                                    : 640 pixels
Height                                   : 360 pixels
Display aspect ratio                     : 16:9
Frame rate                               : 30.000 fps
Color space                              : YUV
Chroma subsampling                       : 4:2:0
Bit depth                                : 8 bits
Scan type                                : Progressive
Compression mode                         : Lossy
Bits/(Pixel*Frame)                       : 0.138
Stream size                              : 321 MiB (87%)
Writing library                          : DivX 5.0.5 (UTC 2003-04-24)

Audio

ID                                       : 1
Format                                   : MPEG Audio
Format version                           : Version 1
Format profile                           : Layer 3
Mode                                     : Joint stereo
Mode extension                           : MS Stereo
Codec ID                                 : 55
Codec ID/Hint                            : MP3
Duration                                 : 47mn 9s
Bit rate mode                            : Constant
Bit rate                                 : 128 Kbps
Channel(s)                               : 2 channels
Sampling rate                            : 48.0 KHz
Compression mode                         : Lossy
Stream size                              : 43.2 MiB (12%)
Alignment                                : Split accross interleaves
Interleave, duration                     : 375 ms (11.26 video frames)





Enjoy the show and don't forget to click the thanks button! wink.gif
IMDB
IMDB Extra
More.Info
Category Japanese TV
Rating
Size 834.82 MB
Show/Hide Files
4 files
AddDate 25/06/2012
Uploader ANONYMOUS
Speed 0 KB/sec
Down 161 times
peers seeds: 4, leechers: 0 = 4 peers
Who thanked
Report
Reseed


02/10/2014 10.01 am

Thank you smile1.gif
17/04/2014 06.14 pm

pls seed.
30/12/2013 06.13 pm

can you please upload the episode where Kutsuna Shiori was interviewed? I think it was in himitsu no arashi. please!thumbsup.gif
25/05/2013 04.21 pm

Thank you so much (♥。◑౪◑。♥)
12/04/2013 09.45 pm

Thank you sooo much!!! I can't wait to watch it!! ^________^
16/12/2012 09.24 pm

Seed please, thank you.
19/07/2012 07.18 am

thank you! ^__^
26/06/2012 09.34 am

Thank you so much <3 I love arashi's shows, thanks for sharing these subbed episodes <3
25/06/2012 07.21 pm

I hope you can upload more Arashi shows. Arigato!




ADS