User Info

ADS

Torrent’s details
Name Triumph In The Skies II 衝上雲霄 II [C-Drama] [HK-Drama] (2013) Ep 31-39
  You will need to Register or Login to download!
Info Hash 9f1d157c6e9b90953bb32586b1c0ccc022cee476
Description


Title : Triumph In The Skies II 衝上雲霄 II [C-Drama] [HK-Drama] (2013) Episode 31-39
Alternative Title(s) : 衝上雲霄 II
Hardsubbed or Softsubbed: Hardsubbed
English Subtitles: Yes
Fansub: Other
Number of Episodes: 40
Date Aired (YYYY-MM-DD): JULY 15 - SEPTEMBER 11, 2013
More Info: http://en.wikipedia.org/wiki/Triumph_in_the_Skies_II
Summary: SAM TONG (Francis Ng) is a successful pilot with a smooth sailing career and has the optimistic ZOE SO (Myolie Wu) as his wife. Unfortunately ZOE suffers from congenital heart disease and since her condition can worsen anytime, SAM takes her traveling around the world. When ZOE knew her condition worsened, she didn’t want her husband to witness her passing, but when SAM wanted to turn back, it was already too late. Losing his wife caused a huge impact on SAM, he went traveling alone and met a shop owner MANNA (Michelle Yim) in London. Because of ZOE, SAM had learned how to make cakes and his skills were much appreciated by MANNA, who had a strong interest to hire him. (aZnangel)
MANNA’s daughter HOLLY HO (Fala Chen) was also greatly impacted by her boyfriend’s death from a plane accident. She goes roaming around all over the place to cope with her grief. When the serious and stern SAM encounters the sensible and impulsive HOLLY, naturally the two would not get along. However as fate has it, the two comforted each other on the lost of their partners. SAM decided to end his traveling and joined Skylette Airlines. (aZnangel)
JAYDEN KOO (Chilam Cheung) is the celebrity captain of Skylette. Whether if its the personality or the work, JAYDEN is completely different from SAM, which causes several conflicts and disputes between the two. JAYDEN’s younger sister SUMMER KOO (Myolie Wu) looks exactly like ZOE, which caused SAM to unconsciously treat her like family. SUMMER also respects SAM like an elder brother, which did make JAYDEN feel good. Meanwhile, ISSAC TONG (Ron Ng) is working at Skylette as well, he worships JAYDEN and developed a close brotherly relationship with him. ISSAC soon develops feelings for his sister SUMMER… ISSAC’s good friend ROY KO (Kenneth Ma) is faced with a relationship dilemma. ROY has a flight attendant girlfriend PINK WU (Rebecca Zhu), but also develops feelings for senior flight attendent HEATHER FONG (Elena Kong)… (aZnangel)
HOLLY leaves London and goes to Hong Kong, where she successfully enrolls in Skylette’s pilot training courses. The playboy pilot JAYDEN immediately started pursuing HOLLY and at the same time, HOLLY saw a shadow of her late boyfriend in JAYDEN, thus the two quickly became a couple… SAM accidentally discovers HOLLY owns the same Triangel doll that ZOE had, but it was just a coincidence that ZOE gave Triangel to HOLLY before her passing…


Quote:

 General
   Complete name : Triumph.In.The.Skies.II.2013.Ep31.mp4
   Format : MPEG-4
   Format profile : Base Media / Version 2
   Codec ID : mp42
   File size : 112 MiB
   Duration : 44mn 27s
   Overall bit rate mode : Variable
   Overall bit rate : 352 Kbps
   Encoded date : UTC 2013-08-29 15:43:28
   Tagged date : UTC 2013-08-29 17:49:00
   Writing application : HandBrake 0.9.5 2011010300
 Video #1
   ID : 1
   Format : AVC
   Format/Info : Advanced Video Codec
   Format profile : High@L3.1
   Format settings, CABAC : Yes
   Format settings, ReFrames : 8 frames
   Codec ID : avc1
   Codec ID/Info : Advanced Video Coding
   Duration : 44mn 27s
   Bit rate mode : Variable
   Bit rate : 300 Kbps
   Width : 720 pixels
   Height : 400 pixels
   Display aspect ratio : 16:9
   Frame rate mode : Variable
   Frame rate : 25.000 fps
   Minimum frame rate : 12.502 fps
   Maximum frame rate : 125.174 fps
   Color space : YUV
   Chroma subsampling : 4:2:0
   Bit depth : 8 bits
   Scan type : Progressive
   Bits/(Pixel*Frame) : 0.042
   Stream size : 95.4 MiB (85%)
   Writing library : x264 core 112
   Encoding settings : cabac=1 / ref=8 / deblock=1:1:1 / analyse=0x3:0x113 / me=umh / subme=10 / psy=1 / psy_rd=0.00:0.00 / mixed_ref=1 / me_range=16 / chroma_me=1 / trellis=2 / 8x8dct=1 / cqm=0 / deadzone=21,11 / fast_pskip=1 / chroma_qp_offset=0 / threads=6 / sliced_threads=0 / nr=0 / decimate=1 / interlaced=0 / constrained_intra=0 / bframes=5 / b_pyramid=2 / b_adapt=2 / b_bias=0 / direct=1 / weightb=1 / open_gop=0 / weightp=2 / keyint=250 / keyint_min=25 / scenecut=40 / intra_refresh=0 / rc_lookahead=40 / rc=2pass / mbtree=1 / bitrate=300 / ratetol=1.0 / qcomp=0.60 / qpmin=3 / qpmax=51 / qpstep=4 / cplxblur=20.0 / qblur=0.5 / ip_ratio=1.40 / aq=2:0.60
   Encoded date : UTC 2013-08-29 15:43:28
   Tagged date : UTC 2013-08-29 17:49:00
   Color primaries : BT.601 NTSC
   Transfer characteristics : BT.709
   Matrix coefficients : BT.601
 Audio #2
   ID : 2
   Format : AAC
   Format/Info : Advanced Audio Codec
   Format profile : LC
   Codec ID : 40
   Duration : 44mn 27s
   Bit rate mode : Variable
   Bit rate : 48.0 Kbps
   Maximum bit rate : 90.1 Kbps
   Channel(s) : 1 channel
   Channel positions : Front: C
   Sampling rate : 48.0 KHz
   Compression mode : Lossy
   Delay relative to video : 40ms
   Stream size : 15.3 MiB (14%)
   Encoded date : UTC 2013-08-29 15:43:28
   Tagged date : UTC 2013-08-29 17:48:57



Screen snapshots:






Episodes 01-10:
http://www.asiatorrents.me/index.php?page=torrent-details&id=0da0ea5f2c1a6671b366d6f0d7779ad4b08d4a5a
Episodes 11-20:
http://www.asiatorrents.me/index.php?page=torrent-details&id=4c30469cac260762531da2c61975dca63a384964
Episode 11 Fixed:
http://www.asiatorrents.me/index.php?page=torrent-details&id=bfd6dea4a39ea7bad1f856d21912af5a8527bdb0
Episodes 21-30:
http://www.asiatorrents.me/index.php?page=torrent-details&id=0a0894291e7008be2b234696fd87b64d49ae0406
Episodes 40-43:
http://www.asiatorrents.me/index.php?page=torrent-details&id=994437305cfa928c4d3b48ed9f3e8aaff8565038
IMDB No IMDB ID been added..
Category Hong Kong TV
Rating N/A
Size 1.12 GB
Show/Hide Files
9 files
AddDate 12/09/2013
Uploader ANONYMOUS
Speed 0 KB/sec
Down 161 times
peers seeds: 1, leechers: 0 = 1 peers
Who thanked
Report
Reseed


No comments...




ADS