User Info

ADS

Torrent’s details
Name The Bride With White Hair Eps 01-06 720pChinese. Sub ONLY)
  You will need to Register or Login to download!
Info Hash 9dbac76b64e45873dcb649ac7eb9834a0c871bd4
Description NO ENGLISH SUBTITLES    



Episodes 01-06 in 720p (This drama is currently airing.)

Title: 新白发魔女传/ Xin Bai Fa Mo Nv Zhuan
English title: The Bride with White Hair
Genre: Wuxia, romance
Episodes: 42
Country: China
Language: Mandarin
Subtitles: Chinese (Hardcoded)
Broadcast network: Hunan TV
Broadcast period: 2012-Sep-7 start
Air time: 22:00 (2 episodes on Fri-Sat-Sun)
DramaLink Wiki:http://wiki.d-addicts.com/The_Bride_with_White_Hair



Cast

Nicky Wu as Zhuo Yi Hang
Ma Su as Lian Ni Chang
Guo Zhen Ni as He E Hua
Louis Fan as Yue Ming Ke
Liu Si Tong as Tie Shan Hu
Li Jie as Geng Shao Nan
Ye Zu Xin as Xin Long Zi
Zhuo Fan as Jin Du Yi
Yue Yao Li as Tie Fei Long
Lily Tien as Hong Hua Gui Mu
Ben Ng as Murong Chong
Wei Lai as Bai Min
Zhang Tian Qi as Wang Zhao Xi
Wang Yi as Meng Qiu Xia
Guo Ke Tong as Tang Jia Bi
Michelle Yim as Ling Mu Hua
Dai Jiao Qian as mysterious heroine
Zhu Rong Rong as Ying Xiu Yang
Hou Yu as Gongsun Lei
Fei Wei Ni as Mo Jiao

Synopsis

In Ming Dynasty China during Tian Qi Emperor's fourth year of reign, the people of Guang Yuan continue to face
crop failure and famine. Zhuo Ji Xian, an official of the Ministry of Revenue, is dispatched by order of the
crown prince to deliver rations and fodder to the stricken region. While passing through the Jade Dragon
Mountains, he and his men, along with the provisions, are seized by Lian Ni Chang, a female vigilante. Zhuo Ji
Xian's son Zhuo Yi Hang, Wu Dang's head disciple, comes to his father's rescue, thereby becoming embroiled in
the battle between the crown prince, infamous eunuch politician Wei Zhong Xian, and Lian Ni Chang. Although the
two start off on the wrong foot, Zhuo Yi Hang and Lian Ni Chang are mutually attracted to each other and fall
in love. However, misunderstandings occur that cause a rift in their relationship, and Lian Ni Chang's hair
turns white overnight after believing that Zhuo Yi Hang has betrayed her. To restore Lian Ni Chang's former
beauty and reunite with his lover, Zhuo Yi Hang travels to Mount Heaven in search of a legendary rare flower
that blooms only once every 60 years.

General

Complete name                  : Bride With White Hair Eps 01-06 720pHNTV.The.Bride.With.White.Hair.E01.720p.HDTV.x264-NGB.mkv
Format                         : Matroska
Format version                 : Version 2
File size                      : 1.09 GiB
Duration                       : 47mn 29s
Overall bit rate               : 3 291 Kbps
Encoded date                   : UTC 2012-09-15 02:36:46
Writing application            : mkvmerge v4.4.0  
Writing library                : libebml v1.0.0 + libmatroska v1.0.0

Video
ID                             : 1
Format                         : AVC
Format/Info                    : Advanced Video Codec
Format profile                 : High@L4.1
Format settings, CABAC         : Yes
Format settings, ReFrames      : 7 frames
Codec ID                       : V_MPEG4/ISO/AVC
Duration                       : 47mn 29s
Bit rate                       : 2 844 Kbps
Width                          : 1 280 pixels
Height                         : 720 pixels
Display aspect ratio           : 16:9
Frame rate                     : 25.000 fps
Color space                    : YUV
Chroma subsampling             : 4:2:0
Bit depth                      : 8 bits
Scan type                      : Progressive
Bits/(Pixel*Frame)             : 0.123
Stream size                    : 944 MiB (84%)

Audio
ID                             : 2
Format                         : AC-3
Format/Info                    : Audio Coding 3
Mode extension                 : CM (complete main)
Format settings, Endianness    : Big
Codec ID                       : A_AC3
Duration                       : 47mn 29s
Bit rate mode                  : Constant
Bit rate                       : 448 Kbps
Channel(s)                     : 6 channels
Channel positions              : Front: L C R, Side: L R, LFE
Sampling rate                  : 48.0 KHz
Bit depth                      : 16 bits
Compression mode               : Lossy
Delay relative to video        : 32ms
Stream size                    : 152 MiB (14%)

                      Episodes 01

                      Episodes 02




Episodes 07-12 http://www.asiatorrents.me/index.php?page=torrent-details&id=d9424a47081b38b37fabb7d82013dcdd31e2ba28

Episodes 13-18  http://www.asiatorrents.me/index.php?page=torrent-details&id=ed8855ec47a5abf1e8601ee1802e9d827bcb13fc

Episodes 19-21 http://www.asiatorrents.me/index.php?page=torrent-details&id=81f65db2f47ff41b04b6fbbdcb3a04413e8ba3b3

Episodes 22-30 http://www.asiatorrents.me/index.php?page=torrent-details&id=dea5a4fa271c058640650ec071a2faceb2b9f658

Episodes 31-36 http://www.asiatorrents.me/index.php?page=torrent-details&id=21a19bee7cdf8ceed05c7b241fa5b8ca27b792b0

Episodes 37-42 http://www.asiatorrents.me/index.php?page=torrent-details&id=fce8be964bf84f1345c9ff92c079414c05706199

Not MyRip, All CREDITS to Uploader

THANK YOU FOR SEEDING


KEEP SEEDING & ENJOY THE SHOW
IMDB No IMDB ID been added..
Category Chinese TV 720p-1090p
Rating
Size 7.46 GB
Show/Hide Files
8 files
AddDate 20/09/2012
Uploader ANONYMOUS
Speed 14.34 KB/sec
Down 152 times
peers seeds: 0, leechers: 0 = 0 peers
Who thanked
Report
Reseed


15/12/2012 06.44 am

Does anyone know where or when the English subs will be up?
17/10/2012 09.31 pm

aww come on now ..there are never subs "anywhere" whenever serious or romantic Chinese dramas hit the net and accessible to the U.S *boo hoo* sad.gif
22/09/2012 09.27 pm

This is an adaptation from the novel, story is quite different from the films & the other series adaptations.  Liáng Yǔshēng's/Chen Wentong's book on this story didn't have a good ending.  This series is quite long, I think 42 Episodes. And its finale airing in the first week of December 2012.  I remembered the white air demoness had a short role in Sword Stained in Royal Blood as An Xiaohui, who had an evil father, who regrets abandoning/killing his family for wealth & power before dying.  She looks quite a bit older now, it seems, after only 5 years. The old saying that due to stress, actors/actresses ages 20% faster than normal people is true... tongue.gif No wonder they need plastic surgery every couple of years.wink.gif

This show seems similar to how "The Magic" blade mixed several of Gǔ Lóng/Xiong Yaohua's books into one series.

21/09/2012 03.30 pm

I haven´t watched this, but from the description it sounds like this is a version of Liang Yusheng´s "White-haired Demoness" (rough translation), which the Brigitte Lin movie was ostensible based on... but, you know, based on it like the "Swordsman" movies was sorta kinda based on Jin Yong´s "Smiling, proud Wanderer" or the "kung Fu Cult Master/Evil Cult" movie was based on "Heaven Sword Dragon Sabre"... ie. they took it as a basic idea and then went apeshit with it in true ´90s HK fashion.

This seems to be way closer to the source.
20/09/2012 11.19 pm

Does anyone know if this story is similiar and or based on the movie The Bride with White Hair 1993 with the late Leslie Cheung Kwok-Wing and Brigitte Lin Ching Hsia? Thanks in advance.
20/09/2012 09.50 pm

Good series, been watching it and I do enjoy it much! Nice to see it here too!
20/09/2012 10.33 am

Looks awesome, hopefully someone will sub it smile1.gif
20/09/2012 09.21 am

Oh, man - this is one of my favourite wuxia books. I would DEARLY love if someone would translate the subs into english... maybe hope that Jiang Hu picks it up or something?




ADS