User Info

ADS

Torrent’s details
Name Beautiful Girl Hunter (1979)
  You will need to Register or Login to download!
Info Hash 9d0857d97ee58a693b1c4f80391b383f3525b7af
Description WARNING:Films contain explicit sex scenes




Beautiful Girl Hunter (1979)
aka Dabide no hoshi: Bishôjo-gari (1979)

File Type:Avi
File Size:1.20 GB
RunTime:1:29:56
Bit Rate:64Kbps
Resolution:704 x 304
Country:Japan
Language:Japanese
Subtitle:English Srt


File/video technical info:

ID : 0
Format : MPEG-4 Visual
Format profile : Advanced Simple@L5
Format settings, BVOP : Yes
Format settings, QPel : No
Format settings, GMC : No warppoints
Format settings, Matrix : Default (MPEG)
Muxing mode : Packed bitstream
Codec ID : XVID
Codec ID/Hint : XviD
Duration : 1h 39mn
Bit rate : 1 517 Kbps
Width : 704 pixels
Height : 304 pixels
Display aspect ratio : 2.35:1
Frame rate : 23.976 fps
Resolution : 8 bits
Colorimetry : 4:2:0
Scan type : Progressive
Bits/(Pixel*Frame) : 0.296
Stream size : 1.06 GiB (88%)
Writing library : XviD 1.2.1 (UTC 2008-12-04)

Audio #1
ID : 1
Format : MPEG Audio
Format version : Version 1
Format profile : Layer 3
Mode : Joint stereo
Format_Settings_ModeExtension : MS Stereo
Codec ID : 55
Codec ID/Hint : MP3
Duration : 1h 39mn
Bit rate mode : Constant
Bit rate : 128 Kbps
Channel(s) : 2 channels
Sampling rate : 48.0 KHz
Stream size : 91.5 MiB (7%)
Alignment : Aligned on interleaves
Interleave, duration : 42 ms (1.00 video frame)
Interleave, preload duration : 504 ms


Director:Norifumi Suzuki
Genre:Horror | Thriller
Cast:Yuka Asagiri
Yûko Asuka
Shun Domon
Hiromi Namino
Hiroshi Nawa
Asami Ogawa
Rei Okamoto
Nagatoshi Sakamoto
Bunta Sugawara
Natsuko Yagi
Shôhei Yamamoto


Synopsis:Norifumi Suzuki's STAR OF David (aka BEAUTIFUL GIRL HUNTER) is a very strong entry in the Nikkatsu violent-pink genre and should be sought out by lovers of sexploit cinema. Unlike some of the other Nikkatsu pink films I've seen - this one has a very polished and professional look to it that makes it stand out amongst other entries. In fact, to my eyes the film resembles the more "mainstream" Toei pinky-violence films but for the slightly more twisted subject matter. This isn't surprising given Suzuki's background in Japanese exploit cinema, helming the equally excellent SCHOOL OF THE HOLY BEAST and SEX AND FURY.

Tatsuya is a handsome young guy who comes into a lot of cash after the "accidental" death of his father. Problem is, his REAL father was a serial rapist and Tatsuya is the product of his mother's rape session. His "surrogate" dad obviously resents Tatsuya's birth and treats him like garbage. Turns out that the penchant for rape must run in the genes - and Tatsuya is no amateur when it comes to the finer points of female abuse and degredation. Eventually Tatsuya's real father comes back into the picture and things go downhill from there...

STAR OF David has a little bit of everything for sexploit fans - Tons of erotically-charged rapes and rope bondage, lots of pantied crotch-shots, incest themes, a hilarious urination scene, some brief necrophilia, implied beastiality - all the things to make a sleaze fan happy. The only draw-back is that the pacing is a bit slow, but even so - STAR OF David is a very solid entry. Pair this one up with a few of Suzuki's other joints and have a sleazy good time...

Dabide no hoshi: Bishôjo-gari


*Movie ripped by Aw...many thanks!!



*******Search found no match of the same title.If you find duplicate of the same content please let me know and i will delete mine.Thanks in advance *******


Happy Viewing



All Comments Are Welcome


IMDB
IMDB Extra
More.Info
Category Japan - Erotica/+18
Rating
Size 1.33 GB
Show/Hide Files
4 files
AddDate 05/05/2010
Uploader ANONYMOUS
Speed 0 KB/sec
Down 678 times
peers seeds: 3, leechers: 0 = 3 peers
Who thanked
Report
Reseed


19/07/2010 09.50 pm

Thanks for the upload. I love Norifumi Suzuki's stuff.

Hi from BMT!
11/05/2010 04.08 pm

Thank you giggsjamesclover.gif
07/05/2010 01.52 am

thank you so much!!!!!!!
06/05/2010 12.06 am

This is one of the most disturbing "Roman Porn" films I've seen. Especially the Nazi/Masturbation scene. Although this is very violent, the scenes are shot in a very artistic, clever manner. Also, the actors & actresses are very convincing. This masterpiece by Suzuki is only surpassed in vileness & debauchery by his film "Rape! 13th Hour", which is one of the most darkest, mean spirited, & violent of the "Roman Porn" genre.
05/05/2010 03.58 pm

Good job !! thumbsup.gif




ADS