User Info

ADS

Torrent’s details
Name Dream Affection 2 2013 720p HDRip H264 Mbaro
  You will need to Register or Login to download!
Info Hash 9c5647220a44c86cabfa1c815d656eb21a59b471
Description Audio Sound : Korean
Subtitle: None








Movie: Dream Affection 2
Hangul: 몽정애 2 - 기막힌 상상 (mong-jeong-ae 2 - gima-ghin sang-sang)
Director: Lee Se-il (이세일)
Release Date: 2013/04/24
Runtime: 60 min.
Genre: •Melodrama •Romance •Erotic
Language: Korean
Country: South Korea
Cast:Yoon Je-hoon (윤제훈),Kang Yoo-ki (강유키),Jo Yoon-ah (조윤아),Sim Eun-ji (심은지)



I think about it doing it with those women everytime I lay in bed...
        Jae-hoon's quit work. Having run out of money, he's about to kicked out of his apartment. He's jobless with nothing to do. He sleeps. There is a mysterious woman who seduces him in his dreams and he leaves himself up to her. He keeps awaking from his sleep because he's uneasy.
        Three women. Yuki, Yujin and min. They think it's not safe for three women to live by themselves so they put out an ad for a male roommate who can also add into the rent. Jae-hoon accepts this offer only thinking about the three women and something unbelievable happens to him and the three...

















Code
Complete name                            : Dream Affection 2.2013.720p.HDRip.H264-Mbaro.mp4
Format                                   : MPEG-4
Format profile                           : Base Media
Codec ID                                 : isom
File size                                : 1.24 GiB
Duration                                 : 56mn 13s
Overall bit rate mode                    : Variable
Overall bit rate                         : 3 165 Kbps
Writing application                      : PotEncoder

Video
ID                                       : 1
Format                                   : AVC
Format/Info                              : Advanced Video Codec
Format profile                           : Baseline@L3.1
Format settings, CABAC                   : No
Format settings, ReFrames                : 2 frames
Codec ID                                 : avc1
Codec ID/Info                            : Advanced Video Coding
Duration                                 : 56mn 13s
Source duration                          : 56mn 13s
Bit rate                                 : 3 002 Kbps
Width                                    : 1 280 pixels
Height                                   : 720 pixels
Display aspect ratio                     : 16:9
Frame rate mode                          : Variable
Frame rate                               : 29.970 fps
Minimum frame rate                       : 29.940 fps
Maximum frame rate                       : 30.000 fps
Color space                              : YUV
Chroma subsampling                       : 4:2:0
Bit depth                                : 8 bits
Scan type                                : Progressive
Bits/(Pixel*Frame)                       : 0.109
Stream size                              : 1.18 GiB (95%)
Source stream size                       : 1.18 GiB (95%)

Audio
ID                                       : 2
Format                                   : AAC
Format/Info                              : Advanced Audio Codec
Format profile                           : LC
Codec ID                                 : 40
Duration                                 : 56mn 13s
Bit rate mode                            : Variable
Bit rate                                 : 158 Kbps
Channel(s)                               : 2 channels
Channel positions                        : Front: L R
Sampling rate                            : 48.0 KHz
Compression mode                         : Lossy
Stream size                              : 63.5 MiB (5%)

IMDB No IMDB ID been added..
Category Korean - Erotica/+18
Rating
Size 1.24 GB
Show/Hide Files
1 file
AddDate 10/06/2013
Uploader ANONYMOUS
Speed 0 KB/sec
Down 4586 times
peers seeds: 32, leechers: 0 = 32 peers
Who thanked
Report
Reseed


09/12/2013 02.14 am

thank you
19/11/2013 02.57 pm

does anyone have English subtitles for this?
17/11/2013 09.38 am

Where I can find english subs for this?
11/10/2013 05.19 pm

cool1.gifLet's start baby...
29/09/2013 09.44 pm

any english subtitle please...wink.gif
15/09/2013 12.55 pm

hOT...tHnxx
10/06/2013 10.15 pm

HOt VCL ! Thank ! angry.gif
10/06/2013 03.46 pm

LOL..yes, it's for education..  cool2.gif
10/06/2013 09.36 am

+18 brings the boys out!ohmy.gif
10/06/2013 09.14 am

thank you
10/06/2013 09.08 am

thanks!




ADS