User Info

ADS

Torrent’s details
Name Big Night (Pinoy CAT III ) 2009
  You will need to Register or Login to download!
Info Hash 97082c131e3d82f1002548f3249dec6accb45651
Description WARNING : THIS MOVIE CONTAINS EXPLICIT SEXUAL CONTENT.



Title            : Big Night
Directed By : Alejandro Bong Ramos
Cast           : Jordan Harera,Marco morales,Althea vega,Sophie Lee, Jaycee Parker,Lorraine lopez
Country      : Philipines
Genre         : Adult, Drama
Language    : Tagalog
Subtitles     :  No ENG SUBS
IMDB link    : http://www.imdb.com/title/tt1463158/

Description

A group of male and female prostitutes make preparations for a big event happening at a shady club where audiences will come to watch them perform sexual acts on stage.

As the big night looms, they begin to feel the consequences of their profession




General
Format                           : AVI
Format/Info                      : Audio Video Interleave
File size                        : 771 MiB
Duration                         : 1h 29mn
Overall bit rate                 : 1 204 Kbps
Writing application              : FairUse Wizard - http://fairusewizard.com
Writing library                  : The best and REALLY easy backup tool

Video
ID                               : 0
Format                           : MPEG-4 Visual
Format profile                   : Advanced Simple@L5
Format settings, BVOP            : Yes
Format settings, QPel            : No
Format settings, GMC             : No warppoints
Format settings, Matrix          : Default (MPEG)
Muxing mode                      : Packed bitstream
Codec ID                         : XVID
Codec ID/Hint                    : XviD
Duration                         : 1h 29mn
Bit rate                         : 1 064 Kbps
Width                            : 512 pixels
Height                           : 368 pixels
Display aspect ratio             : 1.391
Frame rate                       : 29.970 fps
Color space                      : YUV
Chroma subsampling               : 4:2:0
Bit depth                        : 8 bits
Scan type                        : Progressive
Bits/(Pixel*Frame)               : 0.188
Stream size                      : 682 MiB (88%)
Writing library                  : XviD 1.2.0.dev47 (UTC 2006-11-01)

Audio
ID                               : 1
Format                           : MPEG Audio
Format version                   : Version 1
Format profile                   : Layer 3
Mode                             : Joint stereo
Mode extension                   : MS Stereo
Codec ID                         : 55
Codec ID/Hint                    : MP3
Duration                         : 1h 29mn
Bit rate mode                    : Constant
Bit rate                         : 128 Kbps
Channel(s)                       : 2 channels
Sampling rate                    : 48.0 KHz
Stream size                      : 82.0 MiB (11%)
Alignment                        : Aligned on interleaves
Interleave, duration             : 33 ms (1.00 video frame)
Interleave, preload duration     : 504 ms
Writing library                  : LAME3.97
Encoding settings                : -m j -V 4 -q 2 -lowpass 17 -b 128


Enjoy downloading and seed as long as U can. Thankz thumbsup.gif

IMDB
IMDB Extra
More.Info
Category Philippines - Erotic/+18
Rating N/A
Size 771.14 MB
Show/Hide Files
1 file
AddDate 11/06/2010
Uploader ANONYMOUS
Speed 0 KB/sec
Down 2796 times
peers seeds: 4, leechers: 1 = 5 peers
Who thanked
Report
Reseed


12/12/2011 01.59 pm

this is good torent site i like and thank full to all, who contribute run this site, thank you very much..... love asiatorrents
03/07/2010 02.33 am

Thanks,
24/06/2010 04.54 pm

Hi.........that's nice.....thanks
11/06/2010 09.19 pm

Put in the year the next time




ADS