User Info

ADS

Torrent’s details
Name Bad Guy (2010) 450p-HAN Complete + OST
  You will need to Register or Login to download!
Info Hash 94efd3f47bf6eb4cddbaa68faee02d2f21a8032a
Description

http://www.hancinema.net/korean_drama_Bad_Man.php
http://wiki.d-addicts.com/Bad_Guy
http://asianmediawiki.com/Bad_Guy_(2010-SBS-Korean_Drama)

Title: 나쁜 남자 / Nappeun Namja
Also known as: Bad Guy / Bad Man
Genre: Thriller, melodrama, mystery
Episodes: 17
Broadcast network: SBS
Broadcast period: 2010-May-26 to 2010-Aug-05
Air time: Wednesday & Thursday 21:55
Language: Korean
Country: South Korea
Subtitles: English (by WITHS2)

Production Credits
Producer: Goo Bon Geun
Director: Lee Hyung Min
Screenwriter: Kim Jae Eun

Main Cast
Kim Nam Gil as Shim Gun Wook
Kang Soo Han as Gun Wook (child)
Han Ga In as Moon Jae In
Kim Jae Wook as Hong Tae Sung
Park Joon Mok as Tae Sung (child)
Oh Yun Soo as Hong Tae Ra
Moon Ga Young as Tae Ra (teen)
Jung So Min as Hong Mo Ne
Jun Gook Hwan as President Hong
Kim Hye Ok as Mrs. Shin
Kim Jung Tae as Jang Kam Dok
Ha Joo Hee as Jun Hye Joo
Shim Eun Kyung as Moon Won In
Park Ah In as Da Rim

Synopsis
Shim Gun Wook (Kim Nam Gil) plots revenge against the Haeshin Group, a large corporation to whom Hong Tae Sung (Kim Jae Wook) is the heir.

General
Complete name                    : Bad.Guy.E01.100526.HDTV.X264.450p-HAN.avi
Format                           : AVI
Format/Info                      : Audio Video Interleave
File size                        : 808 MiB
Duration                         : 1h 6mn
Overall bit rate                 : 1 710 Kbps
Writing application              : VirtualDubMod 1.5.10.2 (build 2540/release)
Writing library                  : VirtualDubMod build 2540/release

Video
ID                               : 0
Format                           : AVC
Format/Info                      : Advanced Video Codec
Format profile                   : High@L5.1
Format settings, CABAC           : Yes
Format settings, ReFrames        : 2 frames
Codec ID                         : H264
Duration                         : 1h 6mn
Bit rate                         : 1 500 Kbps
Width                            : 800 pixels
Height                           : 450 pixels
Display aspect ratio             : 16:9
Frame rate                       : 29.970 fps
Color space                      : YUV
Chroma subsampling               : 4:2:0
Bit depth                        : 8 bits
Scan type                        : Progressive
Bits/(Pixel*Frame)               : 0.139
Stream size                      : 711 MiB (88%)
Writing library                  : x264 core 50 svn-569

Audio
ID                               : 1
Format                           : AC-3
Format/Info                      : Audio Coding 3
Mode extension                   : CM (complete main)
Codec ID                         : 2000
Duration                         : 1h 6mn
Bit rate mode                    : Constant
Bit rate                         : 192 Kbps
Channel(s)                       : 2 channels
Channel positions                : Front: L R
Sampling rate                    : 48.0 KHz
Bit depth                        : 16 bits
Stream size                      : 90.6 MiB (11%)
Alignment                        : Aligned on interleaves
Interleave, duration             : 33 ms (1.00 video frame)
Interleave, preload duration     : 512 ms



IMDB
IMDB Extra
More.Info
Category Korean TV
Rating
Size 13.98 GB
Show/Hide Files
85 files
AddDate 30/12/2010
Uploader ANONYMOUS
Speed 3.09 KB/sec
Down 290 times
peers seeds: 0, leechers: 0 = 0 peers
Who thanked
Report
Reseed


12/09/2013 04.59 pm

Hi!

I just inform you, that the torrent is full with virus. I already catched 2, and couldnt download it.
29/01/2012 03.25 pm

thanks
23/09/2011 05.29 am

This looks like a good k drama wink.gif thanks,
05/09/2011 12.42 pm

I saw this drama and its the best drama ever!all the emotions were in high level and i hope there would be second season becaouse i cant believe that was the end...must be continued
thanks for the uploader!!!!
19/05/2011 04.33 pm

This drama is one of my favourite dramas, and all the actors, actresses, the story and the music are excellent!
11/02/2011 08.01 pm

this was just too heartbreaking! but i loved it sooo much!
11/02/2011 09.32 am

please i cant download sad.gif
08/01/2011 04.28 pm

Thanks for the OST .
07/01/2011 02.28 pm

Best drama of the year 2010. Brilliant in so many aspects.
31/12/2010 06.35 am

sounds good, maybe a little to "dramatic", and hopefully it isn't too focused on romance like the trailer shows, but i'll give it a go.  Thanx!
30/12/2010 05.34 pm

Watched this recently. Definitely one of the best Kdrama I've seen.




ADS