User Info

ADS

Torrent’s details
Name MAHAROT (2005) [PINOY] DVDRiP DivX NoSubs [Tagalog] WingTip
  You will need to Register or Login to download!
Info Hash 94767e84cd40a635c6d3e95309443e42bc5bf919
Description WARNING: CONTAINS SCENES OF NUDITY. VIEWERS DISCRETION ADVISED



Title: Maharot
English Title: Naughty


Production Info:
Year: 2005
Director: Cesar SB Abella
Cast: Clark Concepcion, Dann de Dios, Kryven Lacson, Shane Villarama, Kuhdet Honasan, Jon Romano
Genre : Drama/Erotic
Duration : 83 Minutes
Language: Tagalog
Subtitles: None
IMDb:

Plot: Maharot, a teasing love story of naughty girl named Cecil (Kuhdet Honasan). The story heightened when Venel (Clark Concepcion), the soldier lover of Cecil, was assigned in Mindanao for a military mission. Days passed by, with the absence of his girlfriend's caring heart, he seeks sexual passion and attention with another lass... leaving Cecil with a broken heart and unfulfilled promises. Because of shattered vows, Cecil seeks affection in the persona of Venel's younger brother, James (Jon Romano) and had a forbidden relationship with a policeman in their town. After a couple of years Venel returned to his hometown wanting to resolve all the troubles he left, he found Cecil's discreet and unfaithful relationships with different men leading him to a discovery of sexual diversion.

Technical Info:
Complete name                    : MAHAROT (2005) [PINOY] DVDRiP DivX NoSubs  [Tagalog] WingTipMAHAROT (2005) [PINOY] DVDRiP DivX NoSubs  [Tagalog] WingTip.AVI
Format                           : DivX
Format/Info                      : Hack of AVI
File size                        : 851 MiB
Duration                         : 1h 23mn
Overall bit rate                 : 1 420 Kbps

Video
ID                               : 0
Format                           : MPEG-4 Visual
Format settings, BVOP            : 3
Format settings, QPel            : No
Format settings, GMC             : No warppoints
Format settings, Matrix          : Default (H.263)
Muxing mode                      : Packed bitstream
Codec ID                         : DX50
Codec ID/Hint                    : DivX 5
Duration                         : 1h 23mn
Bit rate                         : 1 281 Kbps
Width                            : 720 pixels
Height                           : 480 pixels
Display aspect ratio             : 3:2
Frame rate                       : 29.970 fps
Standard                         : NTSC
Color space                      : YUV
Chroma subsampling               : 4:2:0
Bit depth                        : 8 bits
Scan type                        : Progressive
Compression mode                 : Lossy
Bits/(Pixel*Frame)               : 0.124
Stream size                      : 767 MiB (90%)
Title                            : Video
Writing library                  : DivX 6.2.5 (UTC 2006-06-16)

Audio
ID                               : 1
Format                           : MPEG Audio
Format version                   : Version 1
Format profile                   : Layer 3
Codec ID                         : 55
Codec ID/Hint                    : MP3
Duration                         : 1h 23mn
Bit rate mode                    : Constant
Bit rate                         : 128 Kbps
Channel(s)                       : 2 channels
Sampling rate                    : 48.0 KHz
Compression mode                 : Lossy
Stream size                      : 76.6 MiB (9%)
Alignment                        : Split accross interleaves
Interleave, duration             : 33 ms (1.00 video frame)
Interleave, preload duration     : 50 ms
Title                            : Audio

Screen Shots:






Moderator Comments: Edited portion of description (content, spelling and capitalization), changed language type from 'pinoy' to tagalog, warning.
-princekero2003
IMDB No IMDB ID been added..
Category Philippines - Erotic/+18
Rating
Size 850.55 MB
Show/Hide Files
1 file
AddDate 25/01/2011
Uploader ANONYMOUS
Speed 2.39 KB/sec
Down 2339 times
peers seeds: 13, leechers: 0 = 13 peers
Who thanked
Report
Reseed


02/05/2012 01.15 pm

thankssmile1.gif
12/06/2011 03.13 pm

thanks..
09/06/2011 09.12 am

thank so much
27/05/2011 05.30 am

thank you very much
11/04/2011 03.06 pm

thank you!!!
28/01/2011 12.48 pm

thnx chanchao 4 comment..
fren can u guide me how to upload at faster rate..
like in my above torrent its showing 11 leechers but sometime my upload stop or done at rate bet 1-10 kb/s.. and for some time it upload around 50 kb/s..
please help me out i m using utorrent n wanna upload some nice flicks..
28/01/2011 03.09 am

This is hot stuff, thanks!




ADS