User Info

ADS

Torrent’s details
Name Hana Kimi (2006) Complete + Special (hardsubbed) + OST
  You will need to Register or Login to download!
Info Hash 9258da5493cb5f6f2bdf7e9bf275de859862c383
Description

http://wiki.d-addicts.com/Hua_Yang_Shao_Nian_Shao_Nu
http://en.wikipedia.org/wiki/Hanazakarino_Kimitachihe
http://mydramalist.info/dramas/view/307

Title: 花樣少年少女 / Hua Yang Shao Nian Shao Nu
Also known as: Hanazakarino Kimitachie / Hana Kimi
Episodes: 15 + New Year SP
Genre: Romance, Comedy
Broadcast network: CTS / GTV
Broadcast period: 2006-Nov-19 to 2007-Mar-04 / 2006-Nov-25 to 2007-March-10
Air time: Sunday 21:30 / Saturday 21:00
Opening theme song: Zen Me Ban by S.H.E
Ending theme song: Zhuan Shu Tian Shi by TANK
Inserts: See Hua Yang Shao Nian Shao Nu OST
Related drama: Hanazakari no Kimitachi e
Language: Mandarin
Country: Taiwan
Subtitles: English (hardsubbed)

Production Credits
Producers: Chen Zhi Han 陳芷涵 / Qi Yang Lin 齊鍚麟 / Wang Xin Gui 王信貴 / Jerry Feng 馮家瑞 / Huang Wan Bo
Directors: Doze Niu / Wang Ming Tai / Lin Qing Fang 林清芳
Screenwriter: Qi Yang Lin 齊鍚麟

Main Cast
Dormitory Two
Ella Chen as Lu Rui Xi 盧瑞莃 (Ashiya Mizuki)
Wu Chun as Zuo Yi Quan 左以泉 (Sano Izumi)
Jiro Wang as Jin Xiu Yi 金秀伊 (Nakatsu Shuichi)
Danson Tang as Liang Si Nan 梁思南 (Nanba Minami)
Xie Zheng Hao as Guan Ri Hui 關日輝 (Sekime Kyogo)
Chen Wen Xiang as Jiang Ye Shen 江野伸 (Noe Shinji)
Yang Hao Wei as Li Cheng Yang 李承央 (Nakao Senri)
Xie He Xian as Sima Shu 司馬樹 / Da Shu 大樹 (Kayashima Taiki)

Synopsis
After watching a high jump competition on TV, Lu Rui Xi was so inspired by a jumper named Zuo Yi Quan that she decides to transfer to his school, which happened to be an all-boys school; therefore, she disguises herself as a boy to get accepted. At the school, Rui Xi befriends Jin Xiu Yi. One day during a friendly soccer match, Rui Xi is knocked unconscious by Xiu Yi. Quan carries her to the infirmary and realizes that Rui Xi is in fact a girl! However, Quan keeps her identity a secret. At the same time, Xiu Yi starts to question his own sexual orientation when he finds himself having feelings towards Rui Xi.

General
Complete name                    : [SUBLimes]Hana Kimi - 01.mp4
Format                           : MPEG-4
Format profile                   : Base Media
Codec ID                         : isom
File size                        : 351 MiB
Duration                         : 1h 12mn
Overall bit rate                 : 680 Kbps

Video
ID                               : 1
Format                           : AVC
Format/Info                      : Advanced Video Codec
Format profile                   : Main@L5.1
Format settings, CABAC           : Yes
Format settings, ReFrames        : 1 frame
Codec ID                         : avc1
Codec ID/Info                    : Advanced Video Coding
Duration                         : 1h 12mn
Bit rate mode                    : Variable
Bit rate                         : 580 Kbps
Maximum bit rate                 : 1 673 Kbps
Width                            : 528 pixels
Height                           : 360 pixels
Display aspect ratio             : 3:2
Frame rate mode                  : Constant
Frame rate                       : 29.970 fps
Color space                      : YUV
Chroma subsampling               : 4:2:0
Bit depth                        : 8 bits
Scan type                        : Progressive
Bits/(Pixel*Frame)               : 0.102
Stream size                      : 300 MiB (86%)
Writing library                  : x264 core 54 svn-602M

Audio
ID                               : 2
Format                           : AAC
Format/Info                      : Advanced Audio Codec
Format version                   : Version 4
Format profile                   : LC
Format settings, SBR             : No
Codec ID                         : 40
Duration                         : 1h 12mn
Bit rate mode                    : Variable
Bit rate                         : 96.0 Kbps
Maximum bit rate                 : 152 Kbps
Channel(s)                       : 2 channels
Channel positions                : Front: L R
Sampling rate                    : 44.1 KHz
Stream size                      : 49.5 MiB (14%)


IMDB
IMDB Extra
More.Info
Category Taiwanese TV
Rating
Size 6.27 GB
Show/Hide Files
37 files
AddDate 24/01/2011
Uploader ANONYMOUS
Speed 323.71 KB/sec
Down 933 times
peers seeds: 2, leechers: 0 = 2 peers
Who thanked
Report
Reseed


17/12/2013 06.07 pm

I wish I could get beck the precious 18 hrs of my life >__<... I saw all three versions simultaneously and this one is as pointless as the 2007 japanese one is awesome! Ugghhh!
29/11/2013 05.35 pm

Thank you for uploading this series. wink.gif
01/11/2013 04.02 pm

It looks like the OST file in there might be causing it. I'm getting the same error too and if I select the OST folder the program goes a little bonkers... Help please?
15/10/2013 02.47 am

The Best version ever!
23/09/2013 11.29 pm

which is better- this this Taiwanese one or the Japanese one?? what do y'all recommend?
26/07/2013 06.05 pm

Thank you so much.

Love the manga and this live action!
25/03/2013 06.06 am

Thank you. smile1.gif
17/01/2013 12.34 pm

Hi, I'm stuck at 69.8%..
and there are 0 seeds....
I really want to watch this hana kimi version
pls seed!!!! smile1.gif
23/11/2012 08.55 am

me too getting an error :/ sadcry.gif
30/09/2012 08.25 am

hi. i'm trying to download this but i am getting an error. can you please tell me why? thanks.
20/06/2012 09.26 am

Thank you!! Just suddenly had the urge to watch this version of the series.. Glad that I could find it here..grin.gif
12/04/2011 10.30 pm

Having caught a cold has never been this fun before as watching all episodes of Hana Kimi! Tai hao le!
24/01/2011 06.14 pm

I've only seen the first episode of this drama but already found myself charmed by the offbeat and quirky elements of Miss Ella.  Thanks for sharing with the English hardsubs.  It makes things so much easier.smile1.gif




ADS