User Info

ADS

Torrent’s details
Name Me Too Flower (2011) HDTV X264 450p HANrel Complete Series
  You will need to Register or Login to download!
Info Hash 8f9b3d906366b5c81d8b3094cd7ef7c1bc0b5eed
Description


http://wiki.d-addicts.com/Me_Too,_Flower!
http://www.hancinema.net/korean_drama_Me_Too_v__Flower_e_.php
http://asianmediawiki.com/Me_Too,_Flower!

Title: 나도, 꽃! / Na-do, Kkot!
Also known as: I'm A Flower, Too
Genre: Romantic Comedy
Episodes: 15
Broadcast network: MBC
Broadcast period: 2011-Nov-09 to 2011-Dec-28
Air time: Wednesday & Thursday 21:55
Language: Korean
Country: South Korea
Subtitles: English (by DarkSmurf CTS)

Production Credits
Director: Go Dong Sun
Screenwriter: Kim Do Woo

Main Cast
Yoon Shi Yoon as Seo Jae Hee
Lee Ji Ah as Cha Bong Sun
Han Go Eun as Park Hwa Young
Jo Min Ki as Park Tae Hwa
Seo Hyo Rim as Kim Dal

Extended Cast
Lee Ki Kwang as Jo Ma Roo
Im Ha Ryong as Bae Sang Eok
Kim Ji Sook as Kim Do Mi
Lee Byung Joon as Team Leader Kim
Jung Man Shik (정만식) as Kim Do Kyun
Baek Seung Hee as Lee Young Hee
Son Il Kwon as Manager Lee
Ki Joo Bong
Baek Bong Ki
Baek Seung Hwan (백승환)
Jo Sung Kyu
Heo Ga Yoon (허가윤)


Synopsis
A drama about the complicated relationship between three women and one man.

General
Complete name                    : Me.Too.Flower.E01.111109.HDTV.X264.450p-HANrel.avi
Format                           : AVI
Format/Info                      : Audio Video Interleave
File size                        : 913 MiB
Duration                         : 1h 7mn
Overall bit rate                 : 1 893 Kbps

Video
ID                               : 0
Format                           : AVC
Format/Info                      : Advanced Video Codec
Format profile                   : High@L5.1
Format settings, CABAC           : Yes
Format settings, ReFrames        : 2 frames
Codec ID                         : H264
Duration                         : 1h 7mn
Bit rate                         : 1 680 Kbps
Width                            : 800 pixels
Height                           : 450 pixels
Display aspect ratio             : 16:9
Frame rate                       : 29.970 fps
Color space                      : YUV
Chroma subsampling               : 4:2:0
Bit depth                        : 8 bits
Scan type                        : Progressive
Bits/(Pixel*Frame)               : 0.156
Stream size                      : 815 MiB (89%)
Writing library                  : x264 core 50 svn-569

Audio
ID                               : 1
Format                           : AC-3
Format/Info                      : Audio Coding 3
Mode extension                   : CM (complete main)
Codec ID                         : 2000
Duration                         : 1h 7mn
Bit rate mode                    : Constant
Bit rate                         : 192 Kbps
Channel(s)                       : 2 channels
Channel positions                : Front: L R
Sampling rate                    : 48.0 KHz
Bit depth                        : 16 bits
Stream size                      : 92.6 MiB (10%)
Alignment                        : Aligned on interleaves
Interleave, duration             : 33 ms (1.00 video frame)
Interleave, preload duration     : 512 ms




IMDB No IMDB ID been added..
Category Korean TV
Rating
Size 13.14 GB
Show/Hide Files
30 files
AddDate 15/01/2012
Uploader ANONYMOUS
Speed 19.18 KB/sec
Down 411 times
peers seeds: 1, leechers: 1 = 2 peers
Who thanked
Report
Reseed


22/01/2012 08.28 am

Thanks you, but I've a question:Where is the 720p version please ?

have a good day smile1.gif
18/01/2012 05.59 pm

smaller version  http://www.asiatorrents.com/index.php?page=torrent-details&id=992fb4ed38dae59f83127cf183eee34cd1338a3e
16/01/2012 12.49 pm

do you by any chance have a smaller size version of this??? smile1.gif




ADS