User Info

ADS

Torrent’s details
Name A Moment Of Love 2013.1080p.WEB-DL.x264.AAC-SmY
  You will need to Register or Login to download!
Info Hash 8c13d13227d91016b7c0f83e589314ec360387b3
Description








http://en.wikipedia.org/wiki/A_Moment_of_Love
http://chinesemov.com/2013/A-Moment-of-Love.html

Title: A Moment of Love
Chinese: 回到爱开始的地方
AKA: Ai De Ji Jie / Season of Love / Hui Dao Ai Kai Shi De Di Fang
Director: Gavin Lin
Release Date: 23 August 2013
Genre: Drama / Romance
Country: China / Taiwan
Language: Mandarin
Subtitles: Chinese / English (hardsubbed)

Cast
   Vic Zhou
   Liu Shishi
   Zhou Yiwei
   Liu Yun
   Mou Xing

Synopsis
Ji Yaqing, is engaged to be married. She sets off to Yunnan in order to track down the story of the long-lost love of an elderly Taiwanese, whose grandson Xu Nianzu shows up there as well. Since they share the same quest, the two decide to take an impromptu seven-day journey together in the hopes of unearthing more details. In the process, they fall into a momentary but passionate love, which will bring viewers to the edge of their seats as they anticipate what will happen to the couple after the seven days pass.

General
Complete name                  : A Moment Of Love 2013.1080p.WEB-DL.x264.AAC-SmY.mkv
Format                         : Flash Video
File size                      : 1.57 GiB
Duration                       : 1h 33mn
Overall bit rate               : 2 406 Kbps

Video
Format                         : AVC
Format/Info                    : Advanced Video Codec
Format profile                 : High@L4.1
Format settings, CABAC         : Yes
Format settings, ReFrames      : 4 frames
Codec ID                       : 7
Duration                       : 1h 33mn
Bit rate                       : 2 328 Kbps
Width                          : 1 916 pixels
Height                         : 788 pixels
Display aspect ratio           : 2.40:1
Frame rate mode                : Constant
Frame rate                     : 24.000 fps
Color space                    : YUV
Chroma subsampling             : 4:2:0
Bit depth                      : 8 bits
Scan type                      : Progressive
Bits/(Pixel*Frame)             : 0.064
Stream size                    : 1.52 GiB (97%)
Writing library                : x264 core 128

Audio
Format                         : AAC
Format/Info                    : Advanced Audio Codec
Format profile                 : HE-AAC / LC
Codec ID                       : 10
Duration                       : 1h 33mn
Bit rate                       : 70.7 Kbps
Channel count                  : 2 channels
Channel positions              : Front: L R
Sampling rate                  : 48.0 KHz / 24.0 KHz
Compression mode               : Lossy
Delay relative to video        : 161ms
Stream size                    : 49.8 MiB (3%)



IMDB No IMDB ID been added..
Category Chinese Movie 720p-1080p
Rating
Size 1.57 GB
Show/Hide Files
1 file
AddDate 18/12/2013
Uploader ANONYMOUS
Speed 0 KB/sec
Down 805 times
peers seeds: 15, leechers: 1 = 16 peers
Who thanked
Report
Reseed


28/04/2014 01.47 pm

Superb movie............. thanks a lot for itsmile1.gifsmile1.gifsmile1.gifsmile1.gif
10/04/2014 11.03 am

A great movie ! Simple and beautiful ! thanks !
24/12/2013 11.38 pm

this movie sound awfully like Letter's to Juliet. lol.

But I'll still watch it. Love the two main leads. grin.gif
22/12/2013 09.24 pm

Thank You! grin.gif
19/12/2013 02.31 pm

oh my love.gif liu shi shi

thank you
18/12/2013 11.11 pm

Thank you so much wub.gifwub.gifwub.gif




ADS