User Info

ADS

Torrent’s details
Name Seo In Guk & Jung Eunji @ MCountdown 120609 Answer Me 1997 OST Part 1&2 HDTV 1080i
  You will need to Register or Login to download!
Info Hash 8b8f433ee614943b58ea311584ab86de7cb0296b
Description Seo In Guk & Jung Eunji @ MCountdown 120609

Songs Performed from Answer Me 1997 Soundtrack Part 1&2,
All For you & Our Love Like This













Video
ID                                       : 17 (0x11)
Menu ID                                  : 1 (0x1)
Format                                   : MPEG Video
Format version                           : Version 2
Format profile                           : Main@High
Format settings, BVOP                    : Yes
Format settings, Matrix                  : Custom
Format settings, GOP                     : M=3, N=15
Codec ID                                 : 2
Duration                                 : 3mn 26s
Bit rate                                 : 17.0 Mbps
Maximum bit rate                         : 17.4 Mbps
Width                                    : 1 920 pixels
Height                                   : 1 080 pixels
Display aspect ratio                     : 16:9
Frame rate                               : 29.970 fps
Standard                                 : Component
Color space                              : YUV
Chroma subsampling                       : 4:2:0
Bit depth                                : 8 bits
Scan type                                : Interlaced
Scan order                               : Top Field First
Compression mode                         : Lossy
Bits/(Pixel*Frame)                       : 0.273
Stream size                              : 417 MiB (93%)
Name                                     : ko:Video

Audio
ID                                       : 20 (0x14)
Menu ID                                  : 1 (0x1)
Format                                   : AC-3
Format/Info                              : Audio Coding 3
Mode extension                           : CM (complete main)
Codec ID                                 : 129
Duration                                 : 3mn 26s
Bit rate mode                            : Constant
Bit rate                                 : 384 Kbps
Channel(s)                               : 2 channels
Channel positions                        : Front: L R
Sampling rate                            : 48.0 KHz
Bit depth                                : 16 bits
Compression mode                         : Lossy
Delay relative to video                  : -142ms
Stream size                              : 9.45 MiB (2%)
Language                                 : Korean
Name                                     : ko:Audio
IMDB No IMDB ID been added..
Category Korean Music
Rating N/A
Size 1.10 GB
Show/Hide Files
2 files
AddDate 06/09/2012
Uploader ANONYMOUS
Speed 0 KB/sec
Down 54 times
peers seeds: 0, leechers: 0 = 0 peers
Who thanked
Report
Reseed


09/08/2014 05.40 pm

Thank you very kamsam!! ^^
09/08/2014 02.43 pm

Seeding it smile1.gif
28/07/2014 04.53 am

Please, seed! ;_;
06/09/2012 11.47 pm

Thank you SOO MUCH for uploading these performances!! I'm loving this couple and they performed so well. Thanks so much




ADS