User Info

ADS

Torrent’s details
Name Ibitsu.2013.JAP.DVDRip.x264.AC3-ADiOS[No Subs]
  You will need to Register or Login to download!
Info Hash 89fd09a8087bdad1341ee5eefe8957a4aae83232
Description
Audio Sound: Japanese
Subtitle : None








 Movie: Twisted (literal title)
 Romaji: Ibitsu
 Japanese: いびつ
 Director: Toshiyuki Morioka
 Writer: Kazuto Okada (manga), Toshiyuki Morioka
 Producer: Kyosuke Ueno
 Cinematographer: Tetsuya Kudo
 Release Date: February 2, 2013
 Runtime: 80 min.
 Genre: Comedy / Erotic
 Distributor: Chance In
 Language: Japanese
 Country: Japan
Cast
 Hitomi Komatani - Madoka Moritaka
 Masahiro Ishida
 Azusa Sato
 Shuichi Yamauchi
 Sasa Handa
 Dandy Sakano
 Ryota Nakanishi
 Yorie Yamashita



High school student Madoka (Hitomi Komatani) has a bit of a sadistic side. She gets groped on the subway and believes the perpetrator is a young guy, who turns out to be Keigo Kakiguchi. Madoka then blackmails Keigo and ends up staying at his house. Keigo is a virgin. After Madoka moves in, the sensual life of these 2 twisted people begin.

Notes
1. Based on the manga "Ibitsu" by Kazuto Okada (published serially in manga magazine "Young Champion" from July 20, 2010.).

















Code
Complete name : Ibitsu.2013.JAP.DVDRip.x264.AC3-ADiOS.mkv
Format : Matroska
Format version : Version 4 / Version 2
File size : 1.46 GiB
Duration : 1h 22mn
Overall bit rate : 2 519 Kbps
Encoded date : UTC 2013-08-01 08:48:53
Writing application : mkvmerge v6.2.0 ('Promised Land') built on Apr 28 2013 12:22:01
Writing library : Kirara Encoder

Video
ID : 1
Format : AVC
Format/Info : Advanced Video Codec
Format profile : Baseline@L3.1
Format settings, CABAC : No
Format settings, ReFrames : 1 frame
Codec ID : V_MPEG4/ISO/AVC
Duration : 1h 22mn
Bit rate : 2 350 Kbps
Width : 720 pixels
Height : 480 pixels
Display aspect ratio : 3:2
Frame rate mode : Constant
Frame rate : 29.970 fps
Standard : NTSC
Color space : YUV
Chroma subsampling : 4:2:0
Bit depth : 8 bits
Scan type : Progressive
Bits/(Pixel*Frame) : 0.227
Stream size : 1.32 GiB (90%)
Writing library : x264 core 128
Encoding settings : cabac=0 / ref=1 / deblock=1:0:0 / analyse=0x1:0x1 / me=dia / subme=1 / psy=1 / psy_rd=1.00:0.00 / mixed_ref=0 / me_range=16 / chroma_me=1 / trellis=0 / 8x8dct=0 / cqm=0 / deadzone=21,11 / fast_pskip=1 / chroma_qp_offset=0 / threads=3 / lookahead_threads=1 / sliced_threads=0 / nr=0 / decimate=1 / interlaced=0 / bluray_compat=0 / constrained_intra=0 / bframes=0 / weightp=0 / keyint=250 / keyint_min=25 / scenecut=40 / intra_refresh=0 / rc=abr / mbtree=0 / bitrate=2350 / ratetol=1.0 / qcomp=0.60 / qpmin=0 / qpmax=69 / qpstep=4 / ip_ratio=1.40 / aq=1:1.00
Default : Yes
Forced : No

Audio
ID : 2
Format : AC-3
Format/Info : Audio Coding 3
Mode extension : CM (complete main)
Format settings, Endianness : Big
Codec ID : A_AC3
Duration : 1h 22mn
Bit rate mode : Constant
Bit rate : 192 Kbps
Channel(s) : 4 channels
Channel positions : Front: L C R, Side: C
Sampling rate : 48.0 KHz
Bit depth : 16 bits
Compression mode : Lossy
Delay relative to video : 26ms
Stream size : 114 MiB (8%)
Default : Yes
Forced : No



IMDB
IMDB Extra
More.Info
Category Japan - Erotica/+18
Rating
Size 1.46 GB
Show/Hide Files
1 file
AddDate 01/08/2013
Uploader ANONYMOUS
Speed 0 KB/sec
Down 1666 times
peers seeds: 19, leechers: 0 = 19 peers
Who thanked
Report
Reseed


17/04/2014 08.59 am

Many Thanks
05/09/2013 03.03 am

does we have to request for subs?
26/08/2013 05.09 pm

read the manga and it was awesome, i got high hopes for this one xD angry.gif
24/08/2013 06.12 pm

No subs yet?
01/08/2013 07.58 pm

Where can I find subs for this?

Thanks for the upload anyways




ADS