User Info

ADS

Torrent’s details
Name My Life Changed When I Went to a Sex Parlor 2013 1080p.BluRay.x264-WiKi
  You will need to Register or Login to download!
Info Hash 86ec96e556642ab83a38b056c2557c4c8b0a25aa
Description




Detail:

  • Title: My Life Changed When I Went to a Sex Parlor
  • AKA: Fûzoku ni ittara jinsei kawatta www
  • Genre:  Comedy
  • Rating: 6.3/10 from 6 users  
  • Release Date: 9 November 2013 (Japan)
  • Runtime: 100 min
  • Director: Ken Iizuka
  • Link: IMDB
  • Country: Japan
  • Language: Japanese
  • Subtitles: Chinese


Cast:
Shin'nosuke Mitsushima, Nozomi Sasaki, Tôri Matsuzaka

Plot:
Live action film adaptation of a romance that was turned into a book after making a splash on the Internet bulletin board "2 Channel." Humorously depicts a 29-year-old virgin who meets a prostitute, and struggles with love. Directed by Iizuka Ken of Arakawa Under the Bridge.
Ryotaro (Mitsushima Shinnosuke), a 29-year-old virgin who tends to be a push over, tries to make changes in his life and visits a sex parlor. There, he meets Kayo (Sasaki Nozomi), and immediately falls in love. For the first time, Ryotaro experiences the emotion of love.

click SHOW to open Spoiler
Screen Capture:
Spoiler:show








Codec:

Code

General
Unique ID                                : 178652617450434468298983423060417783939 (0x86673E185A541AD3A1DEE302FD092883)
Complete name                            : My.Life.Changed.When.I.Went.to.a.Sex.Parlor.2013.1080p.BluRay.x264.DTS-WiKi.mkv
Format                                   : Matroska
Format version                           : Version 2
File size                                : 13.0 GiB
Duration                                 : 1h 39mn
Overall bit rate                         : 18.7 Mbps
Encoded date                             : UTC 2014-04-12 03:25:31
Writing application                      : mkvmerge v5.8.0 ('No Sleep / Pillow') built on Sep  2 2012 15:37:04
Writing library                          : libebml v1.2.3 + libmatroska v1.3.0
Attachment                               : Yes / Yes / Yes / Yes

Video
ID                                       : 1
Format                                   : AVC
Format/Info                              : Advanced Video Codec
Format profile                           : High@L4.1
Format settings, CABAC                   : Yes
Format settings, ReFrames                : 4 frames
Codec ID                                 : V_MPEG4/ISO/AVC
Duration                                 : 1h 39mn
Bit rate                                 : 17.1 Mbps
Width                                    : 1 920 pixels
Height                                   : 1 036 pixels
Display aspect ratio                     : 1.85:1
Frame rate                               : 23.976 fps
Color space                              : YUV
Chroma subsampling                       : 4:2:0
Bit depth                                : 8 bits
Scan type                                : Progressive
Bits/(Pixel*Frame)                       : 0.359
Stream size                              : 11.7 GiB (90%)
Writing library                          : x264 core 136 r2348+704+51 d1baef6 tMod [8-bit@all X86_64]
Encoding settings                        : cabac=1 / ref=4 / deblock=1:-3:-3 / analyse=0x3:0x133 / me=umh / subme=11 / psy=1 / fade_compensate=0.00 / psy_rd=1.05:0.10 / mixed_ref=1 / me_range=64 / chroma_me=1 / trellis=2 / 8x8dct=1 / cqm=0 / deadzone=21,11 / fast_pskip=0 / chroma_qp_offset=-3 / threads=12 / lookahead_threads=3 / sliced_threads=0 / nr=0 / decimate=0 / interlaced=0 / bluray_compat=0 / constrained_intra=0 / fgo=0 / bframes=12 / b_pyramid=2 / b_adapt=2 / b_bias=0 / direct=3 / weightb=1 / open_gop=0 / weightp=2 / keyint=250 / keyint_min=23 / scenecut=40 / intra_refresh=0 / rc_lookahead=180 / rc=2pass / mbtree=1 / bitrate=17136 / ratetol=1.0 / qcomp=0.70 / qpmin=0:0:0 / qpmax=69:69:69 / qpstep=4 / cplxblur=20.0 / qblur=0.5 / vbv_maxrate=50000 / vbv_bufsize=50000 / nal_hrd=none / ip_ratio=1.40 / aq=1:0.80 / aq-sensitivity=10.00 / aq-factor=1.00:1.00:1.00 / aq2=0 / aq3=0
Default                                  : Yes
Forced                                   : No
Matrix coefficients                      : BT.709-5, BT.1361, IEC 61966-2-4 709, SMPTE RP177

Audio
ID                                       : 2
Format                                   : DTS
Format/Info                              : Digital Theater Systems
Codec ID                                 : A_DTS
Duration                                 : 1h 39mn
Bit rate mode                            : Constant
Bit rate                                 : 1 510 Kbps
Channel(s)                               : 6 channels
Channel positions                        : Front: L C R, Side: L R, LFE
Sampling rate                            : 48.0 KHz
Bit depth                                : 24 bits
Compression mode                         : Lossy
Stream size                              : 1.05 GiB (8%)
Language                                 : Japanese
Default                                  : Yes
Forced                                   : No

Text
ID                                       : 3
Format                                   : ASS
Codec ID                                 : S_TEXT/ASS
Codec ID/Info                            : Advanced Sub Station Alpha
Compression mode                         : Lossless
Language                                 : Chinese
Default                                  : Yes
Forced                                   : No

Menu
00:00:00.000                             : en:00:00:00.000
00:08:18.957                             : en:00:08:18.957
00:14:41.422                             : en:00:14:41.422
00:22:36.272                             : en:00:22:36.272
00:32:31.491                             : en:00:32:31.491
00:42:54.614                             : en:00:42:54.614
00:48:46.924                             : en:00:48:46.924
01:01:13.461                             : en:01:01:13.461
01:09:46.682                             : en:01:09:46.682
01:19:00.569                             : en:01:19:00.569
01:28:49.950                             : en:01:28:49.950
01:36:42.797                             : en:01:36:42.797



*if this torrent has no seeder , please send me a message , i will try to reseed this torrent if i still keep this movie*

Enjoy And Dont FORGET to SEED!
IMDB No IMDB ID been added..
Category Japanese Movie 720p-1080p
Rating
Size 13.00 GB
Show/Hide Files
1 file
AddDate 12/04/2014
Uploader ANONYMOUS
Speed 0 KB/sec
Down 193 times
peers seeds: 5, leechers: 1 = 6 peers
Who thanked
Report
Reseed


31/08/2014 02.15 am

thanks!!!
31/08/2014 02.15 am

thanks!!!




ADS