User Info

ADS

Torrent’s details
Name Skin City (R18+)
  You will need to Register or Login to download!
Info Hash 863b961c5c7a52ee6be8cf55754dc15bd46be1aa
Description Warning : This movie contains explicit and strong sexual content. Not suitable for viewers under age 18
Skin City (R18+)

Genre                            : Adult-Anthology
Distributor                      : Viva Video Inc.
Year                             : 2007
Country                          : Philippines
Source                           : DVD5
Audio Language                   : Filipino | English
Subtitles                        : NONE no need for English subs, the spoken language in this film was English (most of the time)
Ripper                           : MasterMclovin

Format                           : AVI
Format/Info                      : Audio Video Interleave
File size                        : 700 MiB
Duration                         : 1h 10mn
Overall bit rate                 : 1 385 Kbps
Writing application              : VirtualDubMod 1.5.10.2 (build 2542/release)
Writing library                  : VirtualDubMod build 2542/release

Video
ID                               : 0
Format                           : MPEG-4 Visual
Format profile                   : Advanced Simple@L5
Format settings, BVOP            : 1
Format settings, QPel            : No
Format settings, GMC             : No warppoints
Format settings, Matrix          : Default (H.263)
Muxing mode                      : Packed bitstream
Codec ID                         : XVID
Codec ID/Hint                    : XviD
Duration                         : 1h 10mn
Bit rate                         : 1 245 Kbps
Width                            : 640 pixels
Height                           : 480 pixels
Display aspect ratio             : 4:3
Frame rate                       : 29.970 fps
Color space                      : YUV
Chroma subsampling               : 4:2:0
Bit depth                        : 8 bits
Scan type                        : Progressive
Compression mode                 : Lossy
Bits/(Pixel*Frame)               : 0.135
Stream size                      : 630 MiB (90%)
Writing library                  : XviD 1.2.1 (UTC 2008-12-04)

Audio
ID                               : 1
Format                           : MPEG Audio
Format version                   : Version 1
Format profile                   : Layer 3
Mode                             : Joint stereo
Mode extension                   : MS Stereo
Codec ID                         : 55
Codec ID/Hint                    : MP3
Duration                         : 1h 10mn
Bit rate mode                    : Constant
Bit rate                         : 128 Kbps
Channel(s)                       : 2 channels
Sampling rate                    : 48.0 KHz
Compression mode                 : Lossy
Stream size                      : 64.7 MiB (9%)
Alignment                        : Split accross interleaves
Interleave, duration             : 33 ms (1.00 video frame)
Interleave, preload duration     : 500 ms


PLOT: Skin City video brings together ALL the Babes from batch one to present plus other sexy sirens. Get a blow-by-blow as it takes you behind the scenes of a magazine pictorial. Peep into their dressing room. See them get down and dirty. Observe the in naked protest. Never before has a video been this chock-full of hotties!

CAST: Andre del Rosario. Anna Sccott. Asia Agcaoili. Avi Siwa. Claire Carranza. Katrina Gonzales. Katya Santos. Kristine Jaca. Lailanie Vergara. Mara Daniega. Maricar dela Fuente. Maui Taylor. Rachelle Villanuava. Raven Villanuava. Renee Summer. Sachie Sanders. Scarlet Boufard. Sheree Sophie Garrucho. Vanessa Khain. Zarra Lopez
IMDB No IMDB ID been added..
Category Philippines - Erotic/+18
Rating
Size 700.42 MB
Show/Hide Files
1 file
AddDate 23/07/2011
Uploader ANONYMOUS
Speed 0 KB/sec
Down 6554 times
peers seeds: 34, leechers: 0 = 34 peers
Who thanked
Report
Reseed


19/01/2014 09.11 pm

Thanks.. good moviecool1.gif
12/12/2013 01.46 am

A series of video out takes of some Filipina's models doing a photoshoot on an unfinished condo building site.
The girls do their best not to let the videographer capture anything more than a quick flash of tit.
Most of the girls are average fatties with one or two worthy of being called pretty.

Total waste of time unless you're 13 years old...
26/11/2013 04.56 am

Cool movie, thanks for sharing.
25/11/2013 10.56 am

this is photo session or what?
23/11/2013 06.54 pm

Wow, 360 Seeds!... Porn lovers.. shifty.gif
23/11/2013 11.53 am

I can't seems to download any torrent from this site. I'm getting asiatorrents.me tracker not working on my qBitTorrent client. sad.gif
23/11/2013 11.03 am

FYI: It's not a movie. It's Behind the scenes pictorial of some mens magazine.
22/11/2013 02.50 pm

awesome
21/11/2013 12.48 pm

j/k, haven't watched it yet... But, it's free...
21/11/2013 10.41 am

yeeeeeeee good movie!
21/11/2013 07.02 am

thanks
20/11/2013 09.56 am

Infos. given:
Audio Language                   : Filipino | English
Subtitles                        : NONE no need for English subs, the spoken language in this film was English (most of the time)

Your eyes need no language so long as it oogle!
Your mouth need no language so long as it can drool!
Your ears , well the "sound effects is the same is any language.laugh.gif

So why wait for the subs.


20/11/2013 09.44 am

whr to find english subs
18/11/2013 07.05 am

oh crap.

someone make sub please angel.gif
03/06/2013 09.09 am

Thank You....
06/11/2012 11.08 am

Thanks! Been looking for this for the longest time...grin.gif
12/06/2012 06.45 am

Thank You!
11/03/2012 04.01 am

Very good movie ... thanksgrin.gif
28/01/2012 07.48 am

thanks u for sharing good moviesmile1.gif
01/09/2011 09.39 am

Thank you MasterMclovin
26/08/2011 03.49 am

Thanks for this share
01/08/2011 08.58 am

No plot whatsoever - just boring picture taking sessions..
24/07/2011 06.34 pm

is there a plot to this thing?
23/07/2011 07.22 pm

Thank you MasterMclovin smile1.gif
23/07/2011 02.29 pm

I grabbed this from Cheggit last night, It was a darn sight quicker than this encode. The versions arent the same, but probably came from the same original DVD source.

I got to say, its a bag o'crap




ADS