User Info

ADS

Torrent’s details
Name TVB Chinese New Year Daytime Special 2013
  You will need to Register or Login to download!
Info Hash 84e1343f497084c66290a0f75fe98f3699269ea3
Description



TVB Chinese New Year Daytime Special 2013

Hosts: Carlo Lok, Koni Lui, Liza Wang, Margie Tsang, Patrick Dunn
Guests: Jerry Koo, Lily Ho, Jess Sum, Wu Fung, Christine Kuo, Sire Ma, Samantha Ko, Pierre Ngo, Whitney Hui,
       Toby Chan, Jason Chan, Alice Chan, Mak Ling Ling, Stephen Huynh, Ben Wong, Edwin Siu, Ronald Law, Sammy Sum

Genre: TVB Variety
Runtime: 00:42:24
Also Known As: TVB 靈蛇喜舞賀新禧 2013
Country: Hong Kong
Language: Cantonese
Subtitles: Chinese / No Eng Subs.


Release Date: 2013.02.10

General
Complete name                            : TVB CNY Daytime Special 2013.rmvb
Format                                   : RealMedia
File size                                : 330 MiB
Duration                                 : 42mn 24s
Overall bit rate                         : 1 041 Kbps

Video
ID                                       : 1
Format                                   : RealVideo 4
Codec ID                                 : RV40
Codec ID/Info                            : Based on AVC (H.264), Real Player 9
Duration                                 : 42mn 24s
Bit rate                                 : 977 Kbps
Width                                    : 720 pixels
Height                                   : 404 pixels
Display aspect ratio                     : 16:9
Frame rate                               : 25.000 fps
Bits/(Pixel*Frame)                       : 0.134
Stream size                              : 296 MiB (90%)

Audio
ID                                       : 0
Format                                   : Cooker
Codec ID                                 : cook
Codec ID/Info                            : Based on G.722.1, Real Player 6
Duration                                 : 42mn 24s
Bit rate                                 : 64.1 Kbps
Channel(s)                               : 2 channels
Sampling rate                            : 44.1 KHz
Bit depth                                : 16 bits
Stream size                              : 19.4 MiB (6%)

IMDB No IMDB ID been added..
Category Hong Kong TV
Rating N/A
Size 329.51 MB
Show/Hide Files
1 file
AddDate 11/02/2013
Uploader ANONYMOUS
Speed 0 KB/sec
Down 164 times
peers seeds: 0, leechers: 0 = 0 peers
Who thanked
Report
Reseed


No comments...




ADS