User Info

ADS

Torrent’s details
Name Artemisia (2009)
  You will need to Register or Login to download!
Info Hash 811ec5a5f0eede149f3b6bc08c29cd172ec6088f
Description


http://www.imdb.com/title/tt1405358/
http://www.allmovie.com/work/artemisia-488157

Title: Artemisia
AKA: Ai Tsao
Cast: Tang Cheng Gang, Mo Tze Yi, Pan Li Li, Chuo Heng Yin
Director: Chiang Hsiu Chiung
Writer: Tseng Yu Chieh
Music: Li Hsin Yun
Genre: Drama, Boys Love
Release Year: 2009
Runtime: 85 min
Country: Taiwan
Language: Mandarin
Subtitle: Chinese only (Hardcoded)

Chiang Hsiu Chiung's feature directorial debut "Artemisia" is nothing short of excellence. The film is an affectional and beautiful portrait of a loving mother Ai-chao who struggles to cope with her family's affairs that reflect the changing society in Taiwan.

Ai-chao (艾草) means Artemisia. It's also the name of this film's protagonist β€” a 58-year-old Taiwanese woman. When Ai-chao was young, without her mother's approval, she married to her mainland born husband who was 20 years her senior. After her husband died 20 years ago, she raised her closeted gay son and her daughter by herself. Now, not only her children have grown up, the social norm in Taiwan has also changed. It's Ai-chao's turn to face the reality in her family affairs. Despite the conflicts and gaps in generations and culture, the bond and love in a family ultimately prevail.

This deeply affectionate and heartwarming film embraces family, love, and the turbulent journey of understanding and accepting each other in a changing society. Either coming from her own or influenced by directors Edward Yang and Hou Hsiao-Hsien, the film definitely has a resemblance in the storytelling style to films by Yang and Hou. The film's engrossing story and lively characters are naturally developed and effortlessly win over our hearts.

"Artemisia" is the winner of the Golden Gate Awards in the Television Narrative Long Form category at 2009 San Francisco International Film Festival.

General
Complete name                    : Artemisia (2009).rmvb
Format                           : RealMedia
File size                        : 248 MiB
Duration                         : 1h 25mn
Overall bit rate                 : 402 Kbps
Copyright                        : © 2002

Video
ID                               : 1
Format                           : RealVideo 4
Codec ID                         : RV40
Codec ID/Info                    : Based on AVC (H.264), Real Player 9
Duration                         : 1h 25mn
Bit rate                         : 306 Kbps
Width                            : 704 pixels
Height                           : 480 pixels
Display aspect ratio             : 3:2
Frame rate                       : 29.000 fps
Standard                         : NTSC
Bits/(Pixel*Frame)               : 0.031
Stream size                      : 186 MiB (75%)

Audio
ID                               : 0
Format                           : Cooker
Codec ID                         : cook
Codec ID/Info                    : Based on G.722.1, Real Player 6
Duration                         : 1h 25mn
Bit rate                         : 96.5 Kbps
Channel(s)                       : 2 channels
Sampling rate                    : 44.1 KHz
Bit depth                        : 16 bits
Stream size                      : 58.8 MiB (24%)

IMDB
IMDB Extra
More.Info
Category Taiwanese Movie
Rating N/A
Size 247.76 MB
Show/Hide Files
1 file
AddDate 10/10/2010
Uploader ANONYMOUS
Speed 0 KB/sec
Down 196 times
peers seeds: 0, leechers: 0 = 0 peers
Who thanked
Report
Reseed


02/12/2011 11.55 am

Need eng sub plz cry.gif
10/10/2010 06.04 pm

this such a good movie
10/10/2010 06.03 pm

this such a good movie




ADS