User Info

ADS

Torrent’s details
Name Rooftop Prince (2012) E01-E10 (eng subbed)
  You will need to Register or Login to download!
Info Hash 804e9c16058960c84784aa4e6d14899190ac1018
Description



http://wiki.d-addicts.com/Rooftop_Prince
http://www.hancinema.net/korean_drama_The_Rooftop_Prince.php
http://asianwiki.com/Rooftop_Prince

Title: 옥탑방 왕세자 / Oktabbang Wangseja
Also known as: Attic Prince
Genre: Fantasy, comedy, romance
Episodes: 20
Broadcast network: SBS
Broadcast period: 2012-Mar-21 to 2012-May-TBA
Air time: Wednesday & Thursday Night 21:55
Language: Korean
Country: South Korea
Subtitles: English (credit to DramaFever)

Production Credits
Chief Producer: Son Jung Hyun
Producer: Kim Yong Jin (김용진)
Director: Shin Yoon Sub
Screenwriter: Lee Hee Myung

Main Cast
Micky Yoochun as Yong Tae Yong / Lee Gak
Choi Won Hong as young Lee Gak
Han Ji Min as Park Ha / Bu Yong
Jun Min Seo as young Park Ha / young Bu Yong
Lee Tae Sung as Yong Tae Moo
Jung Yoo Mi as Hong Se Na / Hwa Yong
Kim So Hyun as young Se Na / young Hwa Yong
Lee Min Ho as Song Man Bo
Choi Woo Shik as Do Chi San
Jung Suk Won as Woo Yong Sul
Ban Hyo Jung as President Yeo (Tae Yong's grandmother)
Ahn Suk Hwan as Yong Dong Man
Park Joon Geum as Aunt Wang
Lee Moon Shik as Yang Taek Soo
Song Ok Sook as Gong Man Ok
Kang Byul as Lady Mimi
Guzal Tursunova as Becky
Kim Yoo Suk as king
Kil Yong Woo as Bu Yong's father
Kyun Mi Ri as Bu Yong's mother
Maeng Sang Hoon as Park Ha's father
Ahn Sang Tae as policeman
Kim Yong Gun
Lee Won Jong

Recognitions
   2012 5th Korea Drama Awards: Best Actress Award (Han Ji Min)
   2012 7th Seoul International Drama Awards: Excellent Korean Drama
   2012 7th Seoul International Drama Awards: People's Choice Award (Korea) (Park Yoochun)
   2012 7th Seoul International Drama Awards: Outstanding Korean Actor (Park Yoochun)
   2012 7th Seoul International Drama Awards: Outstanding Korean Actress (Han Ji Min)
   2012 Mnet 20's Choice Awards: 20's Drama Star (Female) (Han Ji Min)




Synopsis
A prince from the Joseon era, Lee Gak, is catapulted 300 years forward into the future in Seoul 2012 with his entourage, which includes Song Man Bo, Do Chi San and Woo Young Sul, when he tries to investigate the suspicious circumstances which surround the death of the girl he loved. In the present, he finds a girl who looks exactly like his beloved crown princess...



General
Complete name                  : Rooftop.Prince.E01.450p-KOR.mp4
Format                         : MPEG-4
Format profile                 : Base Media
Codec ID                       : isom
File size                      : 201 MiB
Duration                       : 1h 2mn
Overall bit rate mode          : Variable
Overall bit rate               : 451 Kbps

Video
ID                             : 1
Format                         : AVC
Format/Info                    : Advanced Video Codec
Format profile                 : High@L3.1
Format settings, CABAC         : Yes
Format settings, ReFrames      : 8 frames
Codec ID                       : avc1
Codec ID/Info                  : Advanced Video Coding
Duration                       : 1h 2mn
Bit rate                       : 412 Kbps
Maximum bit rate               : 2 496 Kbps
Width                          : 800 pixels
Height                         : 450 pixels
Display aspect ratio           : 16:9
Frame rate mode                : Constant
Frame rate                     : 29.970 fps
Color space                    : YUV
Chroma subsampling             : 4:2:0
Bit depth                      : 8 bits
Scan type                      : Progressive
Bits/(Pixel*Frame)             : 0.038
Stream size                    : 184 MiB (91%)
Writing library                : x264 core 120 r2120 0c7dab9

Audio
ID                             : 2
Format                         : AAC
Format/Info                    : Advanced Audio Codec
Format profile                 : HE-AACv2 / HE-AAC / LC
Codec ID                       : 40
Duration                       : 1h 2mn
Bit rate mode                  : Variable
Bit rate                       : 32.0 Kbps
Maximum bit rate               : 34.7 Kbps
Channel(s)                     : 2 channels / 2 channels / 2 channels
Channel positions              : Front: L R / Front: L R / Front: L R
Sampling rate                  : 48.0 KHz / 48.0 KHz / 24.0 KHz
Compression mode               : Lossy
Stream size                    : 14.3 MiB (7%)






E11-E20 here: http://www.asiatorrents.me/index.php?page=torrent-details&id=94d890d08f717efcda8d7d7f62dfa72de9a17b81
IMDB
IMDB Extra
More.Info
Category Korean TV
Rating
Size 1.96 GB
Show/Hide Files
27 files
AddDate 26/04/2012
Uploader ANONYMOUS
Speed 0 KB/sec
Down 722 times
peers seeds: 1, leechers: 1 = 2 peers
Who thanked
Report
Reseed


13/07/2012 02.50 pm

Thanks
12/06/2012 12.08 pm

thanks for giving me the chance to watch this series....hope to see more korean series in this site...I really love asiatorrents.net....more power....grin.gif
12/06/2012 12.06 pm

thanks for giving me the chance to watch this series....hope to see more korean series in this site...I really love asiatorrents.net....more power....grin.gif
01/06/2012 04.45 am

One of my favourite. smile1.gif
But there is something that creeps me out in the first episode. Please check episode 1, 55.40-55.46. Somehow the stone is moving. Can anyone tell me what is that?
27/05/2012 09.43 pm

Rooftop Prince E11-E20 END here: http://www.asiatorrents.me/index.php?page=torrent-details&id=94d890d08f717efcda8d7d7f62dfa72de9a17b81
25/05/2012 09.40 am

is the quality of  this torrent in good condition? please someone kindly reply... smile1.gif
11/05/2012 06.29 am

Thanks very much for uploading.

I can play this without problem but when I burn to DVD using ConvertXtoDVD the audio mp4a is not supported by ConvertXtoDVD. Just wish uploader can maybe use something else in future. But really grateful for all your uploads nonetheless. Thanks.

grin.gif
05/05/2012 01.58 pm

Thank you! Been streaming this but it's worth a download after all! Love this suspense, romantic comedy! smile1.gif
04/05/2012 11.26 am

first comment. I don't like the hero from scandal but still want to give this drama a try because of the reviews




ADS