User Info

ADS

Torrent’s details
Name Legend of Hyang Dan (2007) HDTV XViD Complete
  You will need to Register or Login to download!
Info Hash 7eff31ad8f8848937121d44acb3dcd3c3be826c4
Description

Details
Title: 향단전 / Legend of Hyang Dan
Genre: Comedy, Period, Romance
Episodes: 2
Broadcast network: KBS2
Broadcast period: 2007-Sep-3 to 2007-Sep-4
Air time: Sunday 23:35

Subtitles:
English subtitle: http://bonfunsubs.com/legend-of-hyang-dan/ (Hardsub, currently not avaliable).
Hungarian subtitle: http://www.d-addicts.com/forum/viewtopic_94741.htm
Italian subtitle: http://www.d-addicts.com/forum/viewtopic_82092.htm
Spanish subtitle http://subs.asia-team.net/category.php?id=258

Synopsis
The drama is a twist to the well known classic story of The Legend of Chun Hyang. The big question revolving around this plot is what if the one that Lee Mong Ryong loves is not Chun Hyang but Hyang Dan? The drama will deliver a refreshing new comedy style.

Cast
Choi Si Won as Lee Mong Ryong
Seo Ji Hye as Hyang Dan
Lee Ji Soo as Chun Hyang
Huh Jung Min as Bang Ja
Bang Eun Hee as Wol Mae (Chun Hyang's mother)
Im Hyun Sik as Huh Joon
Jung Han Hun as Shim Hak Gyu
Kim Dong Hyun as Suk Ho Pil
Kim Se Ah as Suk Ho Soon
Lee Sung Min as Ban Hak Do
Kim Kwang Gyu as Eui Jik

Production Credits
Director: Kim Sang Ho
Screenwriter: Myung Chang Hyun, Kim Ji Wan




Code
Video
ID                                       : 0
Format                                   : MPEG-4 Visual
Format profile                           : Advanced Simple@L5
Format settings, BVOP                    : 2
Format settings, QPel                    : No
Format settings, GMC                     : No warppoints
Format settings, Matrix                  : Default (MPEG)
Muxing mode                              : Packed bitstream
Codec ID                                 : XVID
Codec ID/Hint                            : XviD
Duration                                 : 1h 5mn
Bit rate                                 : 1 243 Kbps
Width                                    : 640 pixels
Height                                   : 352 pixels
Display aspect ratio                     : 16:9
Frame rate                               : 29.970 fps
Color space                              : YUV
Chroma subsampling                       : 4:2:0
Bit depth                                : 8 bits
Scan type                                : Progressive
Compression mode                         : Lossy
Bits/(Pixel*Frame)                       : 0.184
Stream size                              : 580 MiB (86%)
Writing library                          : XviD 1.1.2 (UTC 2006-11-01)

Audio
ID                                       : 1
Format                                   : MPEG Audio
Format version                           : Version 1
Format profile                           : Layer 3
Mode                                     : Joint stereo
Mode extension                           : MS Stereo
Codec ID                                 : 55
Codec ID/Hint                            : MP3
Duration                                 : 1h 5mn
Bit rate mode                            : Constant
Bit rate                                 : 192 Kbps
Channel count                            : 2 channels
Sampling rate                            : 48.0 KHz
Compression mode                         : Lossy
Stream size                              : 89.5 MiB (13%)
Alignment                                : Aligned on interleaves
Interleave, duration                     : 33 ms (1.00 video frame)
Interleave, preload duration             : 504 ms

IMDB No IMDB ID been added..
Category Korean TV
Rating N/A
Size 1.34 GB
Show/Hide Files
2 files
AddDate 31/10/2013
Uploader ANONYMOUS
Speed 0 KB/sec
Down 98 times
peers seeds: 2, leechers: 0 = 2 peers
Who thanked
Report
Reseed


24/03/2014 12.23 pm

please seed smile1.gif




ADS