User Info

ADS

Torrent’s details
Name Nayak (1966)
  You will need to Register or Login to download!
Info Hash 7ed26f0309fa0494506f75a7d0de6dcb529e0ce0
Description




Title: Nayak
AKA: Nayak: The Hero
Year: 1966
Directed: Satyajit Ray
Genre: Drama
Runtime: 1h 55m
Country: India
Language: Bengali

Subtitles: English.srt

IMDB: http://www.imdb.com/title/tt0060742/

Cast:
Uttam Kumar: Arindam Mukherjee
Sharmila Tagore: Aditi
Bireswar Sen: Mukunda Lahiri
Somen Bose: Sankar
Nirmal Ghosh: Jyoti
Premangshu Bose: Biresh
Sumita Sanyal: Promila Chatterjee
Ranjit Sen: Haren Bose
Bharati Devi: Manorama


Plot / Synopsis

One of the very few movies to accurately and incisively bring forth the part of a movie superstar that remains in the dark vis-à-vis the viewers' perception of the star, Nayak (literally The Hero) also happens to be one the finest and one of the most psychologically stimulating of Ray's efforts. The movie follows a movie superstar's journey from Calcutta to Delhi, by train, to collect a prestigious award. But that's only the short of it. The complex mindset of the “hero”, with all his insecurities, cockiness, male bravado, guilt (for having dumped his mentor and his love for theatre for money and fame), and all the excess baggage that comes with stardom, along with the age old conflict between theatre and cinema, is presented as well as only Ray could. Uttam Kumar, who knew a thing or two about superstardom, has put in the best performance of his illustrious career, as the multi-layered, complex movie hero - Arindam Mukherjee. Sharmila Tagore, too, shines wonderfully as the enigmatic and beautiful journalist and co-passenger, Aditi, who detests the star, respects the actor and gets to like and empathise with the person forever hidden from the masses.AMG





Video:
File Format: AVI (Audio Video Interleave)
File size: 699 MiB
Duration: 1h 55mn
Overall bit rate: 844 Kbps
Format: MPEG-4 Visual
Format profile: Streaming Video@L1
Codec ID/Hint: XviD
Bit rate: 710 Kbps
Width: 416 pixels
Height: 320 pixels
Display aspect ratio: 1.300
Frame rate: 29.970 fps
Resolution: 24 bits
Colorimetry: 4:2:0
Scan type: Progressive
Bits/(Pixel*Frame): 0.178
Stream size: 588 MiB (84%)
Writing library: XviD 1.2.0.dev47 (UTC 2006-11-01)


Audio:
Format : MP3 (MPEG Audio)
Bit rate mode: Variable
Bit rate: 120 Kbps
Minimum bit rate: 128 Kbps
Channel(s): 2 channels
Sampling rate: 48.0 KHz
Resolution: 16 bits
Stream size: 99.1 MiB (14%)
Writing library: LAME3.97
Encoding settings: ABR



Screens:
































IMDB
IMDB Extra
More.Info
Category Indian Movie
Rating
Size 698.75 MB
Show/Hide Files
4 files
AddDate 24/04/2009
Uploader ANONYMOUS
Speed 0 KB/sec
Down 19 times
peers seeds: 0, leechers: 0 = 0 peers
Who thanked
Report
Reseed


15/06/2012 03.03 pm

seed please




ADS