User Info

ADS

Torrent’s details
Name Great Teacher Onizuka/GTO (2012) Complete Series (eng subbed)
  You will need to Register or Login to download!
Info Hash 7cde63abd8f144080a11dfbfa36d5aeed8222437
Description

http://wiki.d-addicts.com/Great_Teacher_Onizuka_2012
http://asianwiki.com/GTO:_Great_Teacher_Onizuka_-_Drama
http://www.ktv.jp/gto/index.html

Title: グレート ティーチャー オニヅカ
Title (English): Great Teacher Onizuka
Also known as: GTO
Genre: School, human drama
Episodes: 11 + SP (2012-Oct-02)
Viewership rating: 13.1% (Kanto)
Broadcast network: Fuji TV / KTV
Broadcast period: 2012-Jul-03 to 2012-Sep-11
Air time: Tuesday 22:00
Theme song: 24karats TRIBE OF GOLD by EXILE TRIBE
Related TV shows: Great Teacher Onizuka (Fuji TV, 1998)
Language: Japanese
Country: Japan
Subtitles: English (credit to Eric Paroissien @ http://paroissien.com)

Production Credits
Original writing: GTO & GTO SYONAN 14 DAYS by Fujisawa Tohru
Screenwriter: Fukazawa Masaki (深沢正樹)
Producers: Kasai Hideyuki (河西秀幸), Yamamoto Yoshihiko (山本喜彦)
Director: Imai Kazuhisa
Music: Haneoka Kei (羽岡佳)

Main Cast
   AKIRA as Onizuka Eikichi
   Takimoto Miori as Fuyutsuki Azusa
   Shirota Yu as Danma Ryuji
   Yamamoto Yusuke as Saejima Toshiyuki
   Takachi Noboru as Hashimoto Tetsuo
   Takizawa Saori as Moritaka Shoko
   Yano Masato as Teshigawara Suguru
   Fujisawa Ayano (藤沢あやの) as Shiratori Ayame
   Nagasawa Nao as Katayama Saki
   Kobayashi Yumi as Sawada Noriko
   Sugi-chan (スギちゃん) as Fukuroda Hajime
   Fuse Eri as Sannomaru Hiroko
   Tayama Ryosei as Uchiyamada Hiroshi
   Kuroki Hitomi as Sakurai Ryoko

Class 2-4
   Kawaguchi Haruna as Aizawa Miyabi
   Takada Sho as Kikuchi Yoshito
   Morimoto Shintaro as Murai Kunio
   Nishiuchi Mariya (西内まりや) as Katsuragi Miki
   Honda Tsubasa as Kanzaki Urumi
   Miyazaki Karen as Nomura Tomoko
   Shirahama Aran as Dojima Seiya
   Nakagawa Taishi as Yoshikawa Noboru
   Yamada Yuki (山田裕貴) as Fujiyoshi Koji
   Suzuki Nobuyuki (鈴木伸之) as Kusano Tadaaki
   Sano Gaku (佐野岳) as Ishida Takumi
   Takatsuki Sara as Kawae Haruka
   Takara Hikari (高良光莉) as Kujirakawa Fuyumi
   Shinkawa Yua as Uehara Anko
   Ishii Anna (石井杏奈) as Asano Mayuko
   Sayama Ayaka (佐山彩香) as Izumi Naomi
   Sakaguchi Rikako (坂口莉果子) as Shirai Chikako
   Miyake Hitomi (三宅ひとみ) as Asakura Megumi
   Hikita Hidemi (疋田英美) as Nakanishi Yumi
   Bando Nozomi (坂東希) as Hitachi Ai
   Yasuda Seia (安田聖愛) as Morishita Rinko
   Natsuo (夏緒) as Ota Hidemi
   Mitsuhashi Nanami (三橋奈波) as Nakagawa Erika
   Fujii Chihi (藤井千帆) as Otsuka Mayumi
   Kirishima Miyu (桐嶋美結) as Iwata Yukiko
   Utsumi Akiyoshi (内海啓貴) as Miyamori Yuki
   Shiono Akihisa (塩野瑛久) as Mizuhara Ryoichi
   Machida Hirokata (町田宏器) as Satomi Keiichi
   Sato Oho (佐藤王宝) as Kurokawa Hiroyuki
   Komori Shota (小森翔太) as Ueda Umanosuke
   Shimoyama Aoi (下山葵) as Mishima Gunji
   Yayama Hiromu (矢山博夢) as Suzuki Daisuke
   Nagayama Akira (永山輝) as Sugawara Tamotsu

Synopsis
Through the introduction of his friend Danma Ryuji, Onizuka Eikichi, the former legendary bike gang member, visits Meishu Academy to tend to the trees in the garden as a part-time gardener. Learning that Yoshikawa Noboru, a student in teacher Fuyutsuki Azusa’s class is being bullied by Uehara Kyoko and other classmates, Onizuka befriends and saves Yoshikawa. Seeing Onizuka’s unprecedented but visceral, powerful response to problem solving, the school’s president and principal, Sakurai Yoshiko, overrides resistance from her vice principal Uchiyamada Hiroshi and makes Onizuka a teacher. Onizuka goes on to tackle many issues as the teacher in charge of the most problematic class, Class 2-4.

General
Complete name                  : GTO.ep02.mkv
Format                         : Matroska
Format version                 : Version 2
File size                      : 185 MiB
Duration                       : 46mn 30s
Overall bit rate mode          : Variable
Overall bit rate               : 555 Kbps
Writing application            : HandBrake 4698svn
Writing library                : libmkv 0.6.5

Video
ID                             : 1
Format                         : AVC
Format/Info                    : Advanced Video Codec
Format profile                 : High@L3.0
Format settings, CABAC         : Yes
Format settings, ReFrames      : 5 frames
Codec ID                       : V_MPEG4/ISO/AVC
Duration                       : 46mn 30s
Bit rate                       : 500 Kbps
Width                          : 704 pixels
Height                         : 400 pixels
Display aspect ratio           : 16:9
Frame rate mode                : Variable / Variable
Frame rate                     : 29.970 fps
Color space                    : YUV
Chroma subsampling             : 4:2:0
Bit depth                      : 8 bits
Scan type                      : Progressive
Bits/(Pixel*Frame)             : 0.059
Stream size                    : 165 MiB (89%)
Writing library                : x264 core 122

Audio
ID                             : 2
Format                         : Vorbis
Format settings, Floor         : 1
Codec ID                       : A_VORBIS
Duration                       : 46mn 30s
Bit rate mode                  : Variable
Bit rate                       : 48.0 Kbps
Channel(s)                     : 1 channel
Sampling rate                  : 44.1 KHz
Compression mode               : Lossy
Stream size                    : 16.0 MiB (9%)


IMDB
IMDB Extra
More.Info
Category Japanese TV
Rating
Size 2.02 GB
Show/Hide Files
22 files
AddDate 27/09/2012
Uploader ANONYMOUS
Speed 0 KB/sec
Down 798 times
peers seeds: 9, leechers: 0 = 9 peers
Who thanked
Report
Reseed


09/05/2014 09.23 pm

THANKZ..smile1.gif
07/08/2013 05.31 pm

Thank you so much! Keep up the job well done smile1.gif
24/04/2013 10.49 pm

Thank you so much for this upload, I haven't seen much live action anime but I have to say this was just the best. watched all 11 episodes back to back, Thank you once againlaugh.gif
28/02/2013 12.14 pm

nice upload, thank you
28/09/2012 04.18 am

360p Maybe^^Remake Nicecool1.gif
28/09/2012 12.23 am

thanks gettora for the small size man
27/09/2012 07.01 pm

Is it the 720p version?




ADS