User Info

ADS

Torrent’s details
Name The Proud Twin
  You will need to Register or Login to download!
Info Hash 7bf5c6a9ea1490a70eb58424a377364fcc228c0f
Description



Also known as Jueshi Shuangjiao
Genre Wuxia, adventure, romance
Directed by Lai Shui-ching & Hsia Yu-shun
Country of origin Taiwan
Language Mandarin
Subtitles English
No. of episodes 40

Cast
Jimmy Lin as Xiaoyu / Jiang Feiyu
TAE as Wuji
Li Xiaolu as Ziyan
Tien Hsin as Yuwen Shuang
Lawrence Ng as Chang Chun
Yu Li as Mingyue
Zheng Guolin as Xiaojiang
Chang Jui-chu as Xueyu
Vivi Ho as Doudou
Shadow Liu as Dongwei
Elvis Tsui as Boss Yu
Huang Chun-kun as Yan Haotian
Wang Tao as Yue Longxuan
Huang Chun-lung as Duan Tianbao
Ku Kuan-chung as Yuwen Pu
Chen Kuan-tai as Ye Tianzhao
Tanny Tien as Zhu Xiaotong
Zhu Yan as Red Chili
Yang Tze-chung as He Yuntian
Ge Lei as Wang Yanniang
You Ya as Mo Bing
Jin Qiaoqiao as Guo Ruolan
Stephanie Hsiao as Yan Piaoxiang
Yue Yueli
Dai Chunrong

Synopsis
It all begins with a legend about two brothers called Amazing Brothers, considered two of the greatest warriors in the land. But as the legend continues, the two vanish after vanquishing a certain Don Renato who tries to kill their sons.

The legend now brings us 20 years after, when a clever gambler and bully named Charlie, played by Jimmy Lin, tragically meets Gary (played by Tae), a simple woodcutter.

Charlie belongs to a family who owns a casino. He is brought up in a complicated environment giving him a gangster-like and frivoulous personality. Gary, on the other hand, grew up in a quiet and beautiful mountain where few people live. To survive, the villagers go hunting and gather wood for fire. Gary is known to be an ordinary woodcutter, but unknown to many, he is well-trained in the art of swordsmanship.

Soon after the meeting of these two different people, they meet the Princess of Casa Bu Er, and a whole love story begins, woven with hard-hitting action sequences based on the art of kung fu.

General
Complete name                    : The Proud Twins - Taiwanese DramaTPT01.avi
Format                           : AVI
Format/Info                      : Audio Video Interleave
File size                        : 326 MiB
Duration                         : 42mn 14s
Overall bit rate                 : 1 079 Kbps
Law rating                       : Unrated

Video
ID                               : 0
Format                           : MPEG-4 Visual
Codec ID                         : DIV3
Codec ID/Hint                    : DivX 3 Low
Duration                         : 42mn 14s
Bit rate                         : 974 Kbps
Width                            : 512 pixels
Height                           : 384 pixels
Display aspect ratio             : 4:3
Frame rate                       : 25.000 fps
Color space                      : YUV
Chroma subsampling               : 4:2:0
Bit depth                        : 8 bits
Bits/(Pixel*Frame)               : 0.198
Stream size                      : 294 MiB (90%)

Audio
ID                               : 1
Format                           : MPEG Audio
Format version                   : Version 1
Format profile                   : Layer 3
Mode                             : Joint stereo
Mode extension                   : Intensity Stereo + MS Stereo
Codec ID                         : 55
Codec ID/Hint                    : MP3
Duration                         : 42mn 14s
Bit rate mode                    : Constant
Bit rate                         : 96.0 Kbps
Channel(s)                       : 2 channels
Sampling rate                    : 48.0 KHz
Video delay                      : 144ms
Stream size                      : 29.0 MiB (9%)
Alignment                        : Split accross interleaves
Interleave, duration             : 40 ms (1.00 video frame)


IMDB No IMDB ID been added..
Category Taiwanese TV
Rating
Size 12.70 GB
Show/Hide Files
40 files
AddDate 12/03/2012
Uploader ANONYMOUS
Speed 11.14 KB/sec
Down 88 times
peers seeds: 1, leechers: 0 = 1 peers
Who thanked
Report
Reseed


26/11/2012 05.29 pm

Is there anyone who have The Legendary Siblings 1999??
Starring Jimmy Lin and Alec Su??
I am looking everywhere for it, with or without english sub.
If there anyone who have it and kindly upload it, i'd be so grateful..
25/11/2012 12.43 pm

oh god. it is juz awesome!
n i was wondering if u got the first season of this movie,
Legendary Siblings (1999)
17/09/2012 09.44 pm

can someone plz seedgrin.gif
06/07/2012 11.38 am

thanks! I've been looking for this! grin.gif




ADS