User Info

ADS

Torrent’s details
Name Autumn in My Heart/Autumn Tale (2000) Complete (eng subbed)
  You will need to Register or Login to download!
Info Hash 793d85c77162e3f2f8dd1ce2a83658b72aea9fc5
Description


http://wiki.d-addicts.com/Autumn_in_My_Heart
http://en.wikipedia.org/wiki/Autumn_in_My_Heart
http://www.hancinema.net/korean_movie_Autumn_in_my_Heart.php
http://asianwiki.com/Autumn_in_my_Heart

Title: 가을동화 / Gaeul Donghwa
AKA: Endless Love 1 / Autumn Tale / Autumn in my Heart / Autumn in the Heart / Autumn Fairy Tale
Genre: Drama, Romance
Episodes: 16
Broadcast network: KBS2
Broadcast period: 2000-Sep-18 to 2000-Nov-07
Air time: Monday & Tuesday 21:55
Original Soundtrack: Autumn in My Heart OST
Viewership rating: (peak) (46.1%) (average: 38.6%)
Related TV shows: Winter Sonata, Summer Scent, Spring Waltz
Language: Korean
Country: South Korea
Subtitles: English

Production Credits
Chief producer: Yoon Hong Sik
Director: Yoon Suk Ho
Screenwriter: Oh Soo Yun
Assistant director: Lee Chae Seung

Main Cast
Song Seung Hun as Yun Joon Suh
Song Hye Kyo as Yun/Choi Eun Suh
Won Bin as Han Tae Suk
Han Na Na as Shin Yu Mi
Han Chae Young as Choi/Yun Shin Ae
Choi Woo Hyuk as young Joon Suh
Moon Geun Young as young Eun Suh
Lee Ae Jung as young Shin Ae
Jung Dong Hwan as Yun Kyo Su (Joon Suh's father)
Sun Woo Eun Sook as Lee Kyung Ha (Joon Suh's mother)
Kim Hae Sook as Kim Soon Im (Eun Suh's mother)
Kim Na Woon as Housekeeping supervisor
Kim Hyung Jong as Eun Suh's brother
Lee Han Wie Jo Ji Han (Joon Suh's sunbae)

Recognitions
2000 KBS Drama Awards: Most Popular Actor Award (Song Seung Hun)
2000 KBS Drama Awards: Photogenic Award (Song Seung Hun)
2000 KBS Drama Awards: Photogenic Award (Song Hye Kyo)
2000 KBS Drama Awards: Most Popular Actress Award (Song Hye Kyo)
2000 KBS Drama Awards: Excellence in Acting (Won Bin)
2000 KBS Drama Awards: Best Young Female Actress Award (Moon Geun Young)
2000 36th Baeksang Arts Awards: Best New Actor Award (Won Bin)




Synopsis
There were two girls who were born in October. They had same birthday and were raised in the same village and in the same class. One led a happy life with loving parents and a brother. Her name was Eun-suh (Song Hye-Kyo). However, the other was raised by a single parent and was living in poverty. Her name was Shin-ae (Han Chae-Young). One day Eun-suh has a car accident and by a blood test it is found that Eun-suh and Shin-ae was swapped at birth. Girls were returned to their original places. Eun-suh's brother Jun-suh (Song Seung-Heon) is especially confused and saddened by this. Some years later, Eun-suh and Shin-ae bump into each other at hotel. Eun-suh is a poor worker and Shin-ae is a hotel manager. Meanwhile, Jun-suh has become an artist and has a fiancee. One day he's introduced to his friend's girlfriend and she was his long lost sister, Eun-suh. Now all the relationships start to twist around and Eun-suh and Jun-suh's sad love begins...



General
Complete name                  : Autumn Tale 01.mp4
Format                         : MPEG-4
Format profile                 : Base Media
Codec ID                       : isom
File size                      : 184 MiB
Duration                       : 48mn 34s
Overall bit rate mode          : Variable
Overall bit rate               : 531 Kbps

Video
ID                             : 1
Format                         : AVC
Format/Info                    : Advanced Video Codec
Format profile                 : High@L3.0
Format settings, CABAC         : Yes
Format settings, ReFrames      : 4 frames
Codec ID                       : avc1
Codec ID/Info                  : Advanced Video Coding
Duration                       : 48mn 34s
Bit rate                       : 473 Kbps
Maximum bit rate               : 2 253 Kbps
Width                          : 640 pixels
Height                         : 480 pixels
Display aspect ratio           : 4:3
Original display aspect ratio  : 4:3
Frame rate mode                : Constant
Frame rate                     : 23.976 fps
Color space                    : YUV
Chroma subsampling             : 4:2:0
Bit depth                      : 8 bits
Scan type                      : Progressive
Bits/(Pixel*Frame)             : 0.064
Stream size                    : 164 MiB (89%)
Title                          : Video
Writing library                : x264 core 105 r1724 b02df7b

Audio
ID                             : 2
Format                         : AAC
Format/Info                    : Advanced Audio Codec
Format profile                 : HE-AAC / LC
Codec ID                       : 40
Duration                       : 48mn 33s
Bit rate mode                  : Variable
Bit rate                       : 56.7 Kbps
Maximum bit rate               : 64.0 Kbps
Channel(s)                     : 2 channels
Channel positions              : Front: L R
Sampling rate                  : 48.0 KHz / 24.0 KHz
Compression mode               : Lossy
Stream size                    : 19.7 MiB (11%)









Spring Waltz here: http://www.asiatorrents.me/index.php?page=torrent-details&id=dd6d9fb7980d2bca79109356834574dbc484b0a6
Winter Sonata here: http://www.asiatorrents.me/index.php?page=torrent-details&id=4951c441c598cc14982c3d79fcadcfb4ae81ddfb
Summer Scent here: http://www.asiatorrents.me/index.php?page=torrent-details&id=4315e32315f19b36839baa6aec3c8a942a97081a
IMDB
IMDB Extra
More.Info
Category Korean TV
Rating
Size 3.01 GB
Show/Hide Files
35 files
AddDate 01/06/2012
Uploader ANONYMOUS
Speed 0 KB/sec
Down 778 times
peers seeds: 19, leechers: 0 = 19 peers
Who thanked
Report
Reseed


13/10/2013 03.42 pm

My 2nd ever k-drama and one of the best!

Would love to watch this one again.
23/09/2013 09.23 pm

Thanks a lot!smile1.gifsmile1.gifsmile1.gif
24/02/2013 04.28 pm

Thank You grin.gifgrin.gifgrin.gifgrin.gifgrin.gifgrin.gif
06/12/2012 12.03 am

i already watched this drama once and i want to watch it again, thank you all for the upload.
26/11/2012 02.48 am

Thank you, my sister in law want to see this movie again.i'll try to give her a surprise by giving her this movie, thanks!
04/11/2012 09.34 pm

love this drama one of my favorite fast downloaded too.
28/08/2012 05.57 am

thanx uploader....thumbsup.gifthumbsup.gifthumbsup.gifthumbsup.gif
02/06/2012 08.41 pm

I just love this drama, also another parts of seasons smile1.gif Winter is absolutely the best, but autumn is so emotional, that I can't help it but watch to the end.
01/06/2012 03.02 pm

An emotionally draining, yet incredibly good drama. Young Moon Geun Young is stellar as the teen version on Song Hye Kyo's character and Miss Song, is of course, radiant even as her fate grows near. Eternal love mingles with sadness. I still get teary just thinking about Autumn in My Heart...cry.gif




ADS