User Info

ADS

Torrent’s details
Name Baabul (2006) HQ +264 (eng sub)
  You will need to Register or Login to download!
Info Hash 77aeb5a036bb9fc4e5269b8767512e0d851eca09
Description




Babul tells the tale of a man (Bachchan) who tries to bring happiness back into his daughter-in-law (Mukherjee)'s life after his son (Salman)'s death.

Director:
Ravi Chopra
Writers:
Ravi Chopra (story), Sameer (lyrics), and 1 more credit ยป
Stars:
Amitabh Bachchan, Salman Khan and Hema Malini



General
Unique ID                                : 206034632350679867061976108705183018749 (0x9B00D3A9541D398787E331AF2C4DAEFD)
Complete name                            : C:UsersTimurDownloadsBaabul.2006.DVDRIP.x264.AC-3.Sub.Jay78.DUSBaabul.2006.DVDRIP.x264.AC-3.Sub.Jay78.DUS.mkv
Format                                   : Matroska
Format version                           : Version 1
File size                                : 2.05 GiB
Duration                                 : 2h 49mn
Overall bit rate                         : 1 733 Kbps
Encoded date                             : UTC 2009-07-09 01:08:28
Writing application                      : mkvmerge v2.5.3 ('Boogie') built on Mar  7 2009 15:00:41
Writing library                          : libebml v0.7.7 + libmatroska v0.8.1

Video
ID                                       : 2
Format                                   : AVC
Format/Info                              : Advanced Video Codec
Format profile                           : Main@L3.0
Format settings, CABAC                   : Yes
Format settings, ReFrames                : 1 frame
Codec ID                                 : V_MPEG4/ISO/AVC
Duration                                 : 2h 49mn
Bit rate                                 : 1 282 Kbps
Width                                    : 720 pixels
Height                                   : 320 pixels
Display aspect ratio                     : 2.25:1
Frame rate                               : 23.976 fps
Color space                              : YUV
Chroma subsampling                       : 4:2:0
Bit depth                                : 8 bits
Scan type                                : Progressive
Bits/(Pixel*Frame)                       : 0.232
Stream size                              : 1.48 GiB (72%)
Writing library                          : x264 core 67 r1128M 682b54d
Encoding settings                        : cabac=1 / ref=1 / deblock=1:0:0 / analyse=0x1:0x111 / me=hex / subme=6 / psy_rd=1.0:0.0 / mixed_ref=0 / me_range=16 / chroma_me=1 / trellis=0 / 8x8dct=0 / cqm=0 / deadzone=21,11 / chroma_qp_offset=-2 / threads=6 / nr=0 / decimate=1 / mbaff=0 / bframes=0 / keyint=250 / keyint_min=25 / scenecut=40 / rc=2pass / bitrate=1282 / ratetol=1.0 / qcomp=0.60 / qpmin=10 / qpmax=51 / qpstep=4 / cplxblur=20.0 / qblur=0.5 / ip_ratio=1.40 / aq=1:1.00
Language                                 : English
Default                                  : Yes
Forced                                   : No

Audio
ID                                       : 1
Format                                   : AC-3
Format/Info                              : Audio Coding 3
Mode extension                           : CM (complete main)
Format settings, Endianness              : Big
Codec ID                                 : A_AC3
Duration                                 : 2h 49mn
Bit rate mode                            : Constant
Bit rate                                 : 448 Kbps
Channel(s)                               : 6 channels
Channel positions                        : Front: L C R, Side: L R, LFE
Sampling rate                            : 48.0 KHz
Bit depth                                : 16 bits
Compression mode                         : Lossy
Stream size                              : 543 MiB (26%)
Default                                  : Yes
Forced                                   : No

IMDB
IMDB Extra
More.Info
Category Indian Movie
Rating N/A
Size 2.05 GB
Show/Hide Files
2 files
AddDate 29/04/2012
Uploader ANONYMOUS
Speed 0 KB/sec
Down 25 times
peers seeds: 0, leechers: 0 = 0 peers
Who thanked
Report
Reseed


30/04/2012 04.05 am

great thanks bro...!
29/04/2012 07.33 pm

You will be a witness of beautiful ana amazing play of Amitabh, truly talented actor of all time...




ADS