User Info

ADS

Torrent’s details
Name [SB] King Drummer (1967)
  You will need to Register or Login to download!
Info Hash 768ff0c0f21688ca8a8fccb778c3f88f891ec97e
Description




















Movie Info:

Title: King Drummer
Original Title: Qing Chun Gu Wang
Country: Hong Kong
Year: 1967
Genre: Drama, Music
Director and Script: Inoue Umetsugu
Producer: Runme Shaw
Cast: Lily Ho Li Li, Ling Yun, Yang Fan, Chen Hung Lieh...
Audio: Mandarin
Subtitles: English embedded

Plot:

Spotting talent wherever it exists, Shaw Brothers offered "King Drummer" as a showcase for the talented Ling Yun. He plays the replacement hired for a popular band whose egotistic drummer quit to join a rival group. When the new arrival becomes a hit, he earns the jealous wrath of the predecessor. Meanwhile, the young drummer's mother is fervently against his music career. With the gorgeous Lily Ho as the manageress of the band and some terrific drumming set pieces, the whole thing, needless to say, comes off with a bang.

Notes:

1) Not my rip.

2) About Inoue Umetsugu:
http://www.hkcinemagic.com/en/people.asp?id=2080
http://en.wikipedia.org/wiki/Umetsugu_Inoue
http://www.imdb.com/name/nm0409325/

3) King Drummer is a remake of The Man Who Causes a Storm, a japanese movie directed by Umetsugu himself in 1957.
http://www.imdb.com/title/tt0160007/

Links:

IMDB: http://www.imdb.com/title/tt0899288/
HKCinemagic: http://www.hkcinemagic.com/en/movie.asp?id=3354
HKMDB: http://hkmdb.com/db/movies/view.mhtml?id=4766&display_set=eng

Technical Info:

General
Complete name                    : King Drummer.1967.DVDrip-schiz.mkv
Format                           : Matroska
File size                        : 670 MiB
Duration                         : 1h 36mn
Overall bit rate                 : 974 Kbps
Movie name                       : King Drummer.1967.schiz
Encoded date                     : UTC 2010-01-27 23:42:02
Writing application              : mkvmerge v2.9.8 (C'est le bon) built on Aug 13 2009 12:49:06
Writing library                  : libebml v0.7.7 + libmatroska v0.8.1

Video
ID                               : 1
Format                           : AVC
Format/Info                      : Advanced Video Codec
Format profile                   : High@L3.0
Format settings, CABAC           : Yes
Format settings, ReFrames        : 3 frames
Codec ID                         : V_MPEG4/ISO/AVC
Duration                         : 1h 36mn
Bit rate                         : 762 Kbps
Width                            : 704 pixels
Height                           : 304 pixels
Display aspect ratio             : 2.35:1
Frame rate                       : 29.970 fps
Color space                      : YUV
Chroma subsampling               : 4:2:0
Bit depth                        : 8 bits
Scan type                        : Progressive
Bits/(Pixel*Frame)               : 0.119
Stream size                      : 524 MiB (78%)

Audio
ID                               : 2
Format                           : AC-3
Format/Info                      : Audio Coding 3
Mode extension                   : CM (complete main)
Codec ID                         : A_AC3
Duration                         : 1h 36mn
Bit rate mode                    : Constant
Bit rate                         : 192 Kbps
Channel(s)                       : 2 channels
Channel positions                : Front: L R
Sampling rate                    : 48.0 KHz
Bit depth                        : 16 bits
Compression mode                 : Lossy
Delay relative to video          : -33ms
Stream size                      : 132 MiB (20%)

Text
ID                               : 3
Format                           : UTF-8
Codec ID                         : S_TEXT/UTF8
Codec ID/Info                    : UTF-8 Plain Text

IMDB
IMDB Extra
More.Info
Category Hong Kong Movie
Rating
Size 669.88 MB
Show/Hide Files
1 file
AddDate 10/04/2011
Uploader ANONYMOUS
Speed 0 KB/sec
Down 73 times
peers seeds: 2, leechers: 0 = 2 peers
Who thanked
Report
Reseed


11/04/2011 12.12 pm

舒缓的节奏,让人感觉很舒服。




ADS