User Info

ADS

Torrent’s details
Name Passport to Love (2009)
  You will need to Register or Login to download!
Info Hash 7493c08a9ecebf5d045fa76e6471af77b9726b51
Description Approved by gandarloda


http://www.rottentomatoes.com/m/passport_to_love/
http://www.vietfilmfest.com/2011/announcements/passport-to-love-victor-vu-film/

Title: Passport to Love
Original title: Chuyen tinh xa xu
Genre: Romance, Comedy
Year: 2009
Director: Victor Vu
Writers: Victor Vu, Nguyen Hoang Nam
Country: USA, Vietnam
Language: English, Vietnamese
Subtitles: English

Main Cast
Ngoc Diep ... Jennifer
Mario E. Garcia ... Cop
Huy Khanh ... Hieu
Binh Minh ... Khang
Tim Otholt ... Casino Patron
Bao Quyen Tang ... Thao
Kathy Uyen ... Tiffany
Phuc Van Nguyen ... Ong Hoang

A romantic comedy set in modern day Saigon, Vietnam and Orange Country, USA. Khang is a charming and handsome playboy; Hieu is his earnest and hardworking "Bill Gates" wannabe sidekick. "The Boys" are sent to study abroad in the US and to bring home a coveted American University Degree. Once in America, Khang's life spirals into chaos; he falls for a young, single mother who happens to be the police officer who books him. While Hieu finds himself trapped between the tempting, Viet Kieu pageant girl Jennifer and his almost too perfect fiancé, Thao, back home. When Hieu's mother falls ill, he must return to Vietnam. A distraught Jennifer follows in secrecy. While Khang stays back in America, but is confronted by his father who is utterly disappointed with his son, just when Khang and Tiffany's world is turning over a new leaf. Having grown some, Khang seeks permission from his father to marry...

General
Complete name                    : Passport.To.Love.2009.x264.AC3-LP102.mkv
Format                           : Matroska
File size                        : 1.47 GiB
Duration                         : 1h 59mn
Overall bit rate                 : 1 757 Kbps
Writing application              : HandBrake 0.9.5
Writing library                  : libmkv 0.6.4.1

Video
ID                               : 1
Format                           : AVC
Format/Info                      : Advanced Video Codec
Format profile                   : Main@L3.0
Format settings, CABAC           : Yes
Format settings, ReFrames        : 4 frames
Codec ID                         : V_MPEG4/ISO/AVC
Duration                         : 1h 59mn
Bit rate                         : 1 557 Kbps
Width                            : 720 pixels
Height                           : 464 pixels
Display aspect ratio             : 16:9
Original display aspect ratio    : 16:9
Frame rate mode                  : Variable
Frame rate                       : 23.976 fps
Color space                      : YUV
Chroma subsampling               : 4:2:0
Bit depth                        : 8 bits
Scan type                        : Progressive
Bits/(Pixel*Frame)               : 0.194
Stream size                      : 1.28 GiB (87%)
Writing library                  : x264 core 112

Audio
ID                               : 2
Format                           : AC-3
Format/Info                      : Audio Coding 3
Mode extension                   : CM (complete main)
Codec ID                         : A_AC3
Duration                         : 1h 59mn
Bit rate mode                    : Constant
Bit rate                         : 192 Kbps
Channel(s)                       : 2 channels
Channel positions                : Front: L R
Sampling rate                    : 48.0 KHz
Bit depth                        : 16 bits
Compression mode                 : Lossy
Stream size                      : 164 MiB (11%)


IMDB
IMDB Extra
More.Info
Category Other Asian Movies
Rating
Size 1.47 GB
Show/Hide Files
4 files
AddDate 04/03/2011
Uploader ANONYMOUS
Speed 0 KB/sec
Down 967 times
peers seeds: 2, leechers: 0 = 2 peers
Who thanked
Report
Reseed


03/02/2012 09.23 pm

may i ask...where is the subtitle?
21/12/2011 12.16 am

Is that cathy nguyen? in youtube? sleep.gif
20/06/2011 08.59 am

thanks for the upload. this was my first time using this site and the quality was great!!
07/03/2011 11.44 am

Thank you gettora.
Greetings from flowerpower1946 in Holland.clover.gif
05/03/2011 08.52 pm

second that
05/03/2011 03.34 pm

gettora: nobody is unhappy. wink.gif fact that you are able to have this here is great. it's a cute movie that deserves to be here. smile1.gif
05/03/2011 09.39 am

If you guys are unhappy, I can remove it myself... It's not that I really want this movie to be uploaded by me here... Actually, I didn't even know that others tried before, sorry...
05/03/2011 03.33 am

oh it's all cool princekero. I just let the guy know about the site rules. Actually, I'm glad that u replied my message. At least I know what is going on. Thanks for your info Princekero smile1.gif
05/03/2011 03.26 am

juju: no need to fret. i put it up myself a while back and it got removed for the same reason.
05/03/2011 03.17 am

smile1.gifwoohoo  Thank you Look great
Thanks!!!!  Very, very pleasant.thanks you, very much.parabens.muito obrigado pelo post Vlw Pelo Post!!Parabens  belo Lançamento
 Thank You Very Much mandou muito bem.. vlw brow nem preciso falar que mando bem Parabéns cara pelo excelente lançamento Excelente lançamento.

smile2.gif
04/03/2011 10.54 pm

Just want to let you know that I posted this movie a few days ago and it was taken down because this is a US-Vietnam product.




ADS